Today is a free download without charge Download

Новогодний парад звезд Жанр:Телепередача (2012) SATRip

Reply to topic
 
Author
Message

KirovSOFT ®

Gender:

Longevity: 9 years 8 months

Posts: 998

Location: Кировская область -Оричи

Торрент-статистика

Post 31-Dec-2012 19:28

[Quote]

Новогодний парад звезд (2012) SATRip [/b- Режиссер / Телекомпания: Россия
Русское название: Новогодний парад звезд
Год выпуска: 2012
Жанр: Телепередача
Описание:
Новый год – время дарить подарки. Сегодня подарки телезрителям приготовили все звезды! Ближе к полуночи, предваряя бой курантов, когда страна провожает Старый год, телеканал "Россия" соберет всех поющих, танцующих и пародирующих артистов, чтобы вспомнить все лучшее, что было на наших эстраде и телевидении в уходящем году. На сцене зажгут "Бурановские бабушки", Юрий Стоянов перевоплотится в Елену Ваенгу, Максим Галкин - в Стаса Михайлова. Елена Воробей в образе Елены Малышевой поспорит с Сергеем Агапкиным за титул главного врача всего телевидения. Михаил Зеленский с Анастасией Чернобровиной сообщат предновогодние новости, а прогноз погоды представит Анна Семенович. Дмитрий Губерниев, Владимир Данилец и Владимир Моисеенко проведут музыкальную гимнастику.
Ведущий: Максим Галкин, Филипп Киркоров
Продолжительность: ~ 01:06:32
Видеокодек: DviX
Битрейт видео: ~1602 kb/s
Размер кадра: 720 x 400
Качество видео: SATRip
Аудиокодек: MP3, 2ch.
Битрейт аудио: 128 kb/s

MediaInfo

Формат : AVI
Формат/Информация : Audio Video Interleave
Размер файла : 828 Мбайт
Продолжительность : 1 ч. 6 м.
Общий поток : 1739 Кбит/сек
Библиотека кодирования : VirtualDub-MPEG2 build 24600/release
Видео
Идентификатор : 0
Формат : MPEG-4 Visual
Профиль формата : [email protected]
Параметр BVOP формата : Нет
Параметр QPel формата : Нет
Параметр GMC формата : Без точки перехода
Параметр матрицы формата : Default (H.263)
Идентификатор кодека : DX50
Идентификатор кодека/Подсказка : DivX 5
Продолжительность : 1 ч. 6 м.
Битрейт : 1602 Кбит/сек
Ширина : 720 пикселей
Высота : 400 пикселей
Соотношение сторон : 16:9
Частота кадров : 25,000 кадров/сек
Цветовое пространство : YUV
Субдискретизация насыщенности : 4:2:0
Битовая глубина : 8 бит
Тип развёртки : Прогрессивная
Метод сжатия : С потерями
Бит/(Пиксели*Кадры) : 0.222
Размер потока : 762 Мбайт (92%)
Библиотека кодирования : XviD 1.2.1 (UTC 2008-12-04)
Аудио
Идентификатор : 1
Формат : MPEG Audio
Версия формата : Version 1
Профиль формата : Layer 3
Режим : Joint stereo
Расширение режима : MS Stereo
Идентификатор кодека : 55
Идентификатор кодека/Подсказка : MP3
Продолжительность : 1 ч. 6 м.
Вид битрейта : Постоянный
Битрейт : 128 Кбит/сек
Каналы : 2 канала
Частота : 48,0 КГц
Метод сжатия : С потерями
Размер потока : 60,9 Мбайт (7%)
Выравнивание : Разделение по промежуткам
Продолжительность промежутка : 40 мс. (1,00 видеокадр)
Время предзагрузки промежутка : 500 мс.
Библиотека кодирования : LAME3.98.2
Скриншоты:
                   

_________________
Other forum [Profile] [PM]
Display posts from previous:    
Reply to topic

The time now is: Today 23:48

All times are GMT + 3 Hours



You cannot post new topics in this forum
You cannot reply to topics in this forum
You cannot edit your posts in this forum
You cannot delete your posts in this forum
You cannot vote in polls in this forum
You cannot attach files in this forum
You cannot download files in this forum