Today is a free download without charge Download

Новогодняя сказка (Владимир Дегтярёв) [1972 г., Сказка, DVB]

Reply to topic
 
Author
Message

Omen ®

Longevity: 8 years 11 months

Posts: 181086

Торрент-статистика

Post 31-Dec-2012 14:32

[Quote]

Новогодняя сказка
Жанр: Сказка
Год выпуска: 1972
Продолжительность: 00:16:36
Режиссёр: Владимир Дегтярев
Описание: Однажды под Новый год, малыши отправились в лес раздобыть елочку. Но в лесу жило сварливое Чудище-Снежище,которое никого не пускало и выдувало из леса. Тогда самая маленькая девочка пошла к нему одна и вежливо с ним поговорила - после этого Чудище решило им помочь и отправилось с елкой в школу к детишкам...
(В мультике звучит замечательная новогодняя песенка, которую с удовольствием будут петь все малыши).
Релиз спутникового канала:

Качество видео: DVB
Формат видео: MPEG-TS
Видео: MPEG4 Video (H264), [email protected] (4:3), анаморф, 25 fps, 3400 kbps
Аудио: MPEG Audio, 2 сh, 48 kHz, 192 kbps

MediaInfo

General
ID : 1
Complete name : D:\Новогодняя сказка.(1972)_DVB by SLuMeP.ts
Format : MPEG-TS
File size : 446 MiB
Duration : 16mn 36s
Overall bit rate : 3 755 Kbps
Video
ID : 1121 (0x461)
Menu ID : 1 (0x1)
Format : AVC
Format/Info : Advanced Video Codec
Format profile : [email protected]
Format settings, CABAC : Yes
Format settings, ReFrames : 3 frames
Format settings, GOP : M=1, N=24
Codec ID : 27
Duration : 16mn 36s
Bit rate : 3 375 Kbps
Width : 720 pixels
Height : 576 pixels
Display aspect ratio : 4:3
Frame rate : 25.000 fps
Standard : Component
Color space : YUV
Chroma subsampling : 4:2:0
Bit depth : 8 bits
Scan type : Interlaced
Scan order : Top Field First
Bits/(Pixel*Frame) : 0.326
Stream size : 401 MiB (90%)
Color primaries : BT.470-6 System B, BT.470-6 System G, BT.601-6 625, BT.1358 625, BT.1700 625 PAL, BT.1700 625 SECAM
Transfer characteristics : BT.470-6 System B, BT.470-6 System G
Matrix coefficients : BT.470-6 System B, BT.470-6 System G, BT.601-6 625, BT.1358 625, BT.1700 625 PAL, BT.1700 625 SECAM, IEC 61966-2-4 601
Audio
ID : 1122 (0x462)
Menu ID : 1 (0x1)
Format : MPEG Audio
Format version : Version 1
Format profile : Layer 2
Codec ID : 3
Duration : 16mn 36s
Bit rate mode : Constant
Bit rate : 192 Kbps
Channel(s) : 2 channels
Sampling rate : 48.0 KHz
Video delay : -40ms
Stream size : 22.8 MiB (5%)
Language : English

Скриншоты

Other forum [Profile] [PM]
Display posts from previous:    
Reply to topic

The time now is: Today 22:49

All times are GMT + 3 Hours



You cannot post new topics in this forum
You cannot reply to topics in this forum
You cannot edit your posts in this forum
You cannot delete your posts in this forum
You cannot vote in polls in this forum
You cannot attach files in this forum
You cannot download files in this forum