Today is a free download without charge Download

Факультет / The Faculty (Роберт Родригес / Robert Rodriguez) [1998 г., Ужасы, Триллер, Фантастика, BDRip 1080p]

Reply to topic
 
Author
Message

Delia ®

Gender:

Longevity: 10 years

Posts: 1821

Торрент-статистика

Post 31-Dec-2012 11:39

[Quote]

-ФакультетThe Faculty«And you thought YOUR teachers were weird...»-- Год выпуска: 1998
Страна: США
Жанр: ужасы, фантастика, триллер, комедия, детектив
Продолжительность: 01:44:29
Перевод: Профессиональный (многоголосый, закадровый)
Режиссер: Роберт Родригес / Robert Rodriguez В ролях: Джош Хартнетт (Zeke Tyler), Элайджа Вуд (Casey Connor), Джордана Брюстер (Delilah Profitt), Клеа Дюваль (Stokely 'Stokes' Mitchell), Лора Харрис (Marybeth Louise Hutchinson), Шон Хэтоси (Stan Rosado), Сальма Хайек (Nurse Rosa Harper), Фамке Янссен (Miss Elizabeth Burke), Пайпер Лори (Mrs. Karen Olson), Кристофер МакДональд (Mr. Frank Connor), Биби Ньювирт (Principal Valerie Drake), Роберт Патрик (Coach Joe Willis)-Описание: Колледж Хэррингтон давно утратил свою первозданность. Его обшарпанные коридоры ежедневно заполняет будущее Америки - одиночки и лидеры, пижоны и наркоманы, умники и кретины. Подобно подросткам везде и всюду, они ведут постоянную борьбу друг с другом.
Но однажды студенты делают ужасающее открытие: их преподаватели - пришельцы с другой планеты! Столкнувшись с вызовом, который они даже не могли себе вообразить, бывшие враги вынуждены объединиться, чтобы спастись от инопланетного вторжения...
-
MPAA: - Лицам до 17 лет обязательно присутствие взрослого-
Качество: BDRip
Контейнер: MKV
Видео: AVC, 1920x1040 (16:9), 9680 kbps, 23,976 fps, 0,202 bpp
Аудио №1: русский /; AC3 /; 2.0 /; 48 kHz /; 192 kbps /; 16 bit; |MVO СТС|
Аудио №2: русский /; AC3 /; 5.1 /; 48 kHz /; 448 kbps /; 16 bit; |AVO Гаврилов|
Аудио №3: русский /; AC3 /; 2.0 /; 48 kHz /; 192 kbps /; 16 bit; |AVO диктор CDV|
Аудио №4: английский /; AC3 /; 5.1 /; 48 kHz /; 384 kbps /; 16 bit
Субтитры №1: русские
Субтитры №2: английские--

Media Info

General
Unique ID : 193336518702660601631899189808631611092 (0x917342527F38B019B121A68BEA3F7ED4)
Complete name : E:\The Faculty (1998) BDRip.F-HD.mkv
Format : Matroska
Format version : Version 4 / Version 2
File size : 7.95 GiB
Duration : 1h 44mn
Overall bit rate : 10.9 Mbps
Encoded date : UTC 2010-02-22 21:41:31
Writing application : mkvmerge v5.9.0 ('On The Loose') built on Dec 9 2012 15:37:01
Writing library : libebml v1.3.0 + libmatroska v1.4.0
Video
ID : 1
Format : AVC
Format/Info : Advanced Video Codec
Format profile : [email protected]
Format settings, CABAC : Yes
Format settings, ReFrames : 4 frames
Codec ID : V_MPEG4/ISO/AVC
Duration : 1h 44mn
Bit rate : 9 680 Kbps
Width : 1 920 pixels
Height : 1 040 pixels
Display aspect ratio : 16:9
Frame rate : 23.976 fps
Color space : YUV
Chroma subsampling : 4:2:0
Bit depth : 8 bits
Scan type : Progressive
Bits/(Pixel*Frame) : 0.202
Stream size : 6.90 GiB (87%)
Writing library : x264 core 129 r2230 1cffe9f
Encoding settings : cabac=1 / ref=4 / deblock=1:-3:-3 / analyse=0x3:0x133 / me=umh / subme=10 / psy=1 / psy_rd=1.00:0.05 / mixed_ref=1 / me_range=48 / chroma_me=1 / trellis=2 / 8x8dct=1 / cqm=0 / deadzone=21,11 / fast_pskip=0 / chroma_qp_offset=-3 / threads=6 / lookahead_threads=1 / sliced_threads=0 / nr=0 / decimate=1 / interlaced=0 / bluray_compat=0 / constrained_intra=0 / bframes=7 / b_pyramid=2 / b_adapt=2 / b_bias=0 / direct=3 / weightb=1 / open_gop=0 / weightp=2 / keyint=240 / keyint_min=23 / scenecut=40 / intra_refresh=0 / rc=2pass / mbtree=0 / bitrate=9680 / ratetol=1.0 / qcomp=0.70 / qpmin=5 / qpmax=51 / qpstep=4 / cplxblur=20.0 / qblur=0.5 / ip_ratio=1.40 / pb_ratio=1.30 / aq=2:0.90
Language : English
Default : Yes
Forced : No
Color primaries : BT.709-5, BT.1361, IEC 61966-2-4, SMPTE RP177
Transfer characteristics : BT.709-5, BT.1361
Matrix coefficients : BT.709-5, BT.1361, IEC 61966-2-4 709, SMPTE RP177
Audio #1
ID : 2
Format : AC-3
Format/Info : Audio Coding 3
Mode extension : CM (complete main)
Codec ID : A_AC3
Duration : 1h 44mn
Bit rate mode : Constant
Bit rate : 192 Kbps
Channel(s) : 2 channels
Channel positions : Front: L R
Sampling rate : 48.0 KHz
Bit depth : 16 bits
Compression mode : Lossy
Stream size : 143 MiB (2%)
Title : MVO СТС
Language : Russian
Default : Yes
Forced : No
Audio #2
ID : 3
Format : AC-3
Format/Info : Audio Coding 3
Mode extension : CM (complete main)
Codec ID : A_AC3
Duration : 1h 44mn
Bit rate mode : Constant
Bit rate : 448 Kbps
Channel(s) : 6 channels
Channel positions : Front: L C R, Side: L R, LFE
Sampling rate : 48.0 KHz
Bit depth : 16 bits
Compression mode : Lossy
Stream size : 335 MiB (4%)
Title : AVO . Гаврилов
Language : Russian
Default : No
Forced : No
Audio #3
ID : 4
Format : AC-3
Format/Info : Audio Coding 3
Mode extension : CM (complete main)
Codec ID : A_AC3
Duration : 1h 44mn
Bit rate mode : Constant
Bit rate : 192 Kbps
Channel(s) : 2 channels
Channel positions : Front: L R
Sampling rate : 48.0 KHz
Bit depth : 16 bits
Compression mode : Lossy
Stream size : 143 MiB (2%)
Title : AVO . диктор CDV
Language : Russian
Default : No
Forced : No
Audio #4
ID : 5
Format : AC-3
Format/Info : Audio Coding 3
Mode extension : CM (complete main)
Codec ID : A_AC3
Duration : 1h 44mn
Bit rate mode : Constant
Bit rate : 384 Kbps
Channel(s) : 6 channels
Channel positions : Front: L C R, Side: L R, LFE
Sampling rate : 48.0 KHz
Bit depth : 16 bits
Compression mode : Lossy
Stream size : 287 MiB (4%)
Language : English
Default : No
Forced : No
Text #1
ID : 6
Format : UTF-8
Codec ID : S_TEXT/UTF8
Codec ID/Info : UTF-8 Plain Text
Language : Russian
Default : No
Forced : No
Text #2
ID : 7
Format : UTF-8
Codec ID : S_TEXT/UTF8
Codec ID/Info : UTF-8 Plain Text
Language : English
Default : No
Forced : No

Знаете ли Вы, что...

  • В туалете можно заметить надпись «Tito and Tarantula». Данная группа написала часть музыки и сыграла в двух других картинах Родригеза - «Отчаянный» (1995) и «От заката до рассвета» (1996).
  • Мэрибет отказывается принимать наркотики, заявив, что у неё аллергия. На что Делайла (Джордана Брюстер) отвечает: «А я португалка». В реальной жизни Брюстер свободно говорит на португальском.
  • Джон Стюарт исполнил роль профессора Эдварда Ферлонга. Актера Эдварда Ферлонга, сыгравшего Джона Коннора в «Терминаторе 2: Судный день» (1991), преследовал Т-1000, в роли которого снялся Роберт Патрик, сыгравший в «Факультете» тренера Джо Уиллиса.
  • В сцене, где мы слышим объявление о том, что школьники должны пройти в учительскую, одного из них зовут Томми Никс. В реальной жизни Томми Никс - друг Роберта Родригеза со времен колледжа. Он помогал Роберту в написании сценария к «Гонщикам» (1994)
  • Машина Зика - 1970 Pontiac GTO.
  • Роль Делайлы была специально написана для Харизмы Карпентер, но актриса отвергла предложение, посчитав, что данный персонаж очень похож на её героиню в «Баффи - истребительнице вампиров» (1997).
  • Герои фильма одеты в одежду «Tommy Hilfiger». Актеры, сыгравшие главные роли, также появились в телевизионных роликах и печатной рекламе данного бренда.


Скриншоты

       
       

_________________
Человек – это канат, натянутый между животным и сверхчеловеком, – канат над пропастью.
В человеке ценно то, что он мост, а не цель. Фридрих Ницше
Other forum [Profile] [PM]
Display posts from previous:    
Reply to topic

The time now is: Today 01:32

All times are GMT + 3 Hours



You cannot post new topics in this forum
You cannot reply to topics in this forum
You cannot edit your posts in this forum
You cannot delete your posts in this forum
You cannot vote in polls in this forum
You cannot attach files in this forum
You cannot download files in this forum