Today is a free download without charge Download

Как казак счастье искал (Владимир Дахно) [1969, Рисованный мультфильм, DVDRip]

Reply to topic
 
Author
Message

Omen ®

Longevity: 7 years 11 months

Posts: 181087

Торрент-статистика

Post 30-Dec-2012 21:08

[Quote]

Как казак счастье искал
Страна: СССР
Жанр: Рисованный мультфильм
Продолжительность: 00:09:47
Год выпуска: 1969
Русские субтитры: нет
Режиссёр: Владимир Дахно
Описание: Как молодой казак искал лихого коня, а нашел жену
Доп. информация: „Киевнаучфильм“
Сценаристы: Владимир Дахно, Михаил Татарский
Оператор: Анатолий Гаврилов
Композитор: Владимир Губа
Качество: DVDRip
Формат: AVI
Видео: 704x528 (1.33:1), 25 fps, XviD build 65 ~2149 kbps avg, 0.23 bit/pixel
Аудио: 48 kHz, AC3 Dolby Digital, 2/0 (L,R) ch, ~192.00 kbps avg
Субтитры: нет

Подробные технические данные

Формат : AVIФормат/Информация : Audio Video InterleaveРазмер файла : 165 МбайтПродолжительность : 9 м. 47 с.Общий поток : 2352 Кбит/секПрограмма кодирования : VirtualDubModRus 1.5.10.2 (build 2542/release)Библиотека кодирования : VirtualDubMod build 2542/release
ВидеоИдентификатор : 0Формат : MPEG-4 VisualПрофиль формата : Advanced [email protected]Параметр BVOP формата : 2Параметр QPel формата : ДаПараметр GMC формата : Без точки переходаПараметр матрицы формата : ВыборочнаяИдентификатор кодека : XVIDИдентификатор кодека/Подсказка : XviDПродолжительность : 9 м. 47 с.Битрейт : 2150 Кбит/секШирина : 704 пикс.Высота : 528 пикс.Соотношение сторон : 4:3Частота кадров : 25,000 кадр/секЦветовое пространство : YUVПодвыборка цветности : 4:2:0Битовая глубина : 8 битТип развёртки : ПрогрессивнаяМетод сжатия : С потерямиБит/(Пиксели*Кадры) : 0.231Размер потока : 151 Мбайт (91%)Библиотека кодирования : XviD 65
АудиоИдентификатор : 1Формат : AC-3Формат/Информация : Audio Coding 3Расширение режима : CM (complete main)Идентификатор кодека : 2000Продолжительность : 9 м. 47 с.Вид битрейта : ПостоянныйБитрейт : 192 Кбит/секКанал(ы) : 2 канала(ов)Расположение каналов : Front: L RЧастота : 48,0 КГцБитовая глубина : 16 битМетод сжатия : С потерямиРазмер потока : 13,5 Мбайт (8%)Выравнивание : Соединение по промежуткамПродолжительность промежутка : 40 мс. (1,00 видеокадр)Время предзагрузки промежутка : 512 ms

Скриншоты

Other forum [Profile] [PM]
Display posts from previous:    
Reply to topic

The time now is: Today 14:43

All times are GMT + 3 Hours



You cannot post new topics in this forum
You cannot reply to topics in this forum
You cannot edit your posts in this forum
You cannot delete your posts in this forum
You cannot vote in polls in this forum
You cannot attach files in this forum
You cannot download files in this forum