Today is a free download without charge Download

Дневной дозор / Day Watch (Тимур Бекмамбетов [2006] фэнтези, боевик, триллер ) BDRip 720p

Reply to topic
 
Author
Message

Delia ®

Gender:

Longevity: 11 years

Posts: 1821

Торрент-статистика

Post 20-Apr-2011 07:48

[Quote]

Дневной дозор Day Watch Год выпуска:2006
Страна:Россия
Жанр: фэнтези, боевик, триллер
Продолжительность:02:25:48
Перевод: не требуется
Режиссер:Тимур Бекмамбетов
Продюссер: Варя Авдюшко, Константин Эрнст, Алексей Кублицкий
Сценарий: Тимур Бекмамбетов, Сергей Лукьяненко, Александр Талал
Бюджет: $4 200 000
Премьера в мире:1 января 2006
В ролях: Константин Хабенский, Мария Порошина, Владимир Меньшов, Галина Тюнина, Виктор Вержбицкий, Жанна Фриске, Дмитрий Мартынов, Валерий Золотухин, Алексей Чадов, Нуржуман Ихтымбаев, Алексей Маклаков, Александр Самойленко, Гоша Куценко и др.
Описание:Ночью в подъезде своего дома убита молодая женщина. На теле не обнаружено никаких следов насилия... Зыбкое равновесие между Светлыми и Темными нарушено. И чаша весов склоняется в сторону Темных. Но убитая - Темная иная, а значит подозрение падает на Светлых.
Гессер срочно собирает команду: обвинение в убийстве - серьезная проблема. Он обязан реагировать. И, прежде всего, понять кто где был и чем занимался в указанное Темными время. Выясняется, что алиби отсутствует только у Городецкого...
Качество:BDRip 720p (Blu-ray 1080p CША)
Формат: MKV
Видео кодек: H.264
Аудио кодек: AC3
Видео:English, 3971 Кбит/сек, 1280*544 (2,35:1), в 23,976 кадр/сек, AVC ([email protected])
Аудио: Russian, 384 Кбит/сек, 48,0 КГц, 16 бит, 6 канала(ов), AC-3
Субтитры:English - VobSub

MediaInfo:

Общее
Уникальный идентификатор : 231638222814532771172735601729582734328 (0xAE43E62221D3ED8CA2D3D87DE3011BF8)
Полное имя : E:\торрент\Day Watch(2006) BDRip 720p.mkv
Формат : Matroska
Размер файла : 4,43 Гбайт
Продолжительность : 2 ч. 25 м.
Общий поток : 4350 Кбит/сек
Дата кодирования : UTC 2011-04-20 03:40:17
Программа кодирования : mkvmerge v4.6.0 ('Still Crazy After All These Years') built on Mar 10 2011 02:50:32
Библиотека кодирования : libebml v1.2.0 + libmatroska v1.1.0
Видео
Идентификатор : 1
Формат : AVC
Формат/Информация : Advanced Video Codec
Профиль формата : [email protected]
Параметр CABAC формата : Да
Параметр ReFrames формата : 8 кадры
Параметры GOP формата : M=5, N=32
Идентификатор кодека : V_MPEG4/ISO/AVC
Продолжительность : 2 ч. 25 м.
Битрейт : 3971 Кбит/сек
Ширина : 1280 пикс.
Высота : 544 пикс.
Соотношение сторон : 2,35:1
Частота кадров : 23,976 кадр/сек
Цветовое пространство : YUV
Подвыборка цветности : 4:2:0
Битовая глубина : 8 бит
Тип развёртки : Прогрессивная
Бит/(Пиксели*Кадры) : 0.238
Размер потока : 3,95 Гбайт (89%)
Библиотека кодирования : x264 core 114 r1924 08d04a4
Настройки программы : cabac=1 / ref=8 / deblock=1:-2:-2 / analyse=0x3:0x133 / me=umh / subme=7 / psy=1 / psy_rd=1.00:0.15 / mixed_ref=1 / me_range=32 / chroma_me=1 / trellis=2 / 8x8dct=1 / cqm=0 / deadzone=21,11 / fast_pskip=0 / chroma_qp_offset=-3 / threads=6 / sliced_threads=0 / nr=0 / decimate=1 / interlaced=0 / constrained_intra=0 / bframes=4 / b_pyramid=2 / b_adapt=1 / b_bias=0 / direct=1 / weightb=1 / open_gop=0 / weightp=2 / keyint=250 / keyint_min=24 / scenecut=40 / intra_refresh=0 / rc_lookahead=50 / rc=2pass / mbtree=1 / bitrate=3971 / ratetol=1.0 / qcomp=0.80 / qpmin=5 / qpmax=51 / qpstep=4 / cplxblur=20.0 / qblur=0.5 / ip_ratio=1.40 / aq=1:1.00
Язык : English
Аудио
Идентификатор : 2
Формат : AC-3
Формат/Информация : Audio Coding 3
Расширение режима : CM (complete main)
Идентификатор кодека : A_AC3
Продолжительность : 2 ч. 25 м.
Вид битрейта : Постоянный
Битрейт : 384 Кбит/сек
Канал(ы) : 6 канала(ов)
Расположение каналов : Front: L C R, Side: L R, LFE
Частота : 48,0 КГц
Битовая глубина : 16 бит
Метод сжатия : С потерями
Размер потока : 400 Мбайт (9%)
Язык : Russian
Текст
Идентификатор : 3
Формат : VobSub
Режим смешивания : zlib
Идентификатор кодека : S_VOBSUB
Идентификатор кодека/Информация : The same subtitle format used on DVDs
Язык : English
Меню
00:00:00.000 : en:00:00:00.000
00:05:48.139 : en:00:05:48.139
00:08:30.218 : en:00:08:30.218
00:12:35.838 : en:00:12:35.838
00:17:00.353 : en:00:17:00.353
00:20:30.271 : en:00:20:30.271
00:23:24.320 : en:00:23:24.320
00:26:59.201 : en:00:26:59.201
00:32:45.797 : en:00:32:45.797
00:35:15.530 : en:00:35:15.530
00:38:31.976 : en:00:38:31.976
00:40:52.450 : en:00:40:52.450
00:45:38.069 : en:00:45:38.069
00:49:48.777 : en:00:49:48.777
00:54:10.622 : en:00:54:10.622
00:57:15.849 : en:00:57:15.849
01:00:01.556 : en:01:00:01.556
01:01:27.142 : en:01:01:27.142
01:05:13.576 : en:01:05:13.576
01:06:54.260 : en:01:06:54.260
01:08:56.716 : en:01:08:56.716
01:13:09.552 : en:01:13:09.552
01:16:12.026 : en:01:16:12.026
01:20:04.591 : en:01:20:04.591
01:22:50.174 : en:01:22:50.174
01:28:49.824 : en:01:28:49.824
01:30:42.771 : en:01:30:42.771
01:34:49.475 : en:01:34:49.475
01:39:45.813 : en:01:39:45.813
01:45:16.477 : en:01:45:16.477
01:46:56.327 : en:01:46:56.327
01:50:32.835 : en:01:50:32.835
01:52:12.935 : en:01:52:12.935
01:54:37.120 : en:01:54:37.120
01:57:41.805 : en:01:57:41.805
02:01:07.010 : en:02:01:07.010
02:08:46.969 : en:02:08:46.969
02:10:28.863 : en:02:10:28.863
02:13:10.065 : en:02:13:10.065
02:17:02.131 : en:02:17:02.131

Скриншоты

       

_________________
Человек – это канат, натянутый между животным и сверхчеловеком, – канат над пропастью.
В человеке ценно то, что он мост, а не цель. Фридрих Ницше


Last edited by Delia on 2011-08-26 18:49; edited 1 time in total
Other forum [Profile] [PM]
Display posts from previous:    
Reply to topic

The time now is: Today 14:23

All times are GMT + 3 Hours



You cannot post new topics in this forum
You cannot reply to topics in this forum
You cannot edit your posts in this forum
You cannot delete your posts in this forum
You cannot vote in polls in this forum
You cannot attach files in this forum
You cannot download files in this forum