Today is a free download without charge Download

Supertramp - Live In Paris '79 [2012, Progressive rock, pop rock, art rock, BDRip 720p]

Reply to topic
 
Author
Message

Omen ®

Longevity: 8 years 4 months

Posts: 181087

Торрент-статистика

Post 30-Dec-2012 12:00

[Quote]

Supertramp - Live In Paris '79
Жанр: Progressive rock, pop rock, art rock
Продолжительность: 01:40:31
Год выпуска: 2012
Описание: Transferred and restored from the original 16mm film, remixed from the original multi-tracks, presented in both stereo and 5.1 surround sound. Track list: School, Bloody Well Right, The Logical Song, Goodbye Stranger, Breakfast In America, Hide In Your Shell, Asylum, Even In The Quietest Moments, Give A Little Bit, Dreamer, Rudy, Take The Long Way Home, Another Man’s Woman, Child Of Vision, Fool’s Overture, Two Of Us, Crime Of The Century, From Now On; Bonus tracks (featuring remixed audio with newly created visuals): Ain’t Nobody But Me, You Started Laughing (When I Held You In My Arms), A Soap Box Opera, From Now On, Downstream
Треклист: 1 Introduction
2 School
3 Bloody Well Right
4 The Logical Song
5 Goodbye Stranger
6 Breakfast In America
7 Hide In Your Shell
8 Asylum
9 Even In The Quietest Moments
10 Give A Little Bit
11 Dreamer
12 Rudy
13 Take The Long Way Home
14 Another Man s Woman
15 Child Of Vision
16 Fool s Overture
17 Two Of Us
18 Crime Of The Century
19 From Now On (credits
Качество: BDRip 720p
Контейнер: MKV
Видео кодек: H.264
Аудио кодек: AC3
Видео: AVC / 1280 : 704 пик/ 16:9 / 5500 Кбит/сек / 24,000 кадр/сек
Аудио: AC-3 / 384 Кбит/сек / 48,0 КГц / 2 канала

Отчёт MediaInfo / BDInfo

Формат : MatroskaРазмер файла : 4,13 ГбайтПродолжительность : 1 ч. 40 м.Общий поток : 5883 Кбит/секДата кодирования : UTC 2012-12-30 06:57:46Программа кодирования : mkvmerge v5.8.0 ('No Sleep / Pillow') built on Sep 2 2012 15:37:04Библиотека кодирования : libebml v1.2.3 + libmatroska v1.3.0
ВидеоИдентификатор : 1Формат :Формат/Информация : Advanced Video CodecПрофиль формата : [email protected]Параметр CABAC формата : ДаПараметр ReFrames формата : 4 кадрыРежим смешивания : Header strippingИдентификатор кодека : V_MPEG4/ISO/AVCПродолжительность : 1 ч. 40 м.Битрейт : 5500 Кбит/секШирина : 1280 пикс.Высота : 704 пикс.Соотношение сторон : 16:9Режим частоты кадров : ПеременныйЧастота кадров : 24,000 кадр/секЦветовое пространство : YUVПодвыборка цветности : 4:2:0Битовая глубина : 8 битТип развёртки : ПрогрессивнаяБит/(Пиксели*Кадры) : 0.254Размер потока : 3,78 Гбайт (91%)Библиотека кодирования : x264 core 120Настройки программы : cabac=1 / ref=3 / deblock=1:0:0 / analyse=0x3:0x113 / me=hex / subme=7 / psy=1 / psy_rd=1.00:0.00 / mixed_ref=1 / me_range=16 / chroma_me=1 / trellis=1 / 8x8dct=1 / cqm=0 / deadzone=21,11 / fast_pskip=1 / chroma_qp_offset=-2 / threads=3 / sliced_threads=0 / nr=0 / decimate=1 / interlaced=0 / bluray_compat=0 / constrained_intra=0 / bframes=3 / b_pyramid=2 / b_adapt=1 / b_bias=0 / direct=1 / weightb=1 / open_gop=0 / weightp=2 / keyint=240 / keyint_min=24 / scenecut=40 / intra_refresh=0 / rc_lookahead=40 / rc=2pass / mbtree=1 / bitrate=5500 / ratetol=1.0 / qcomp=0.60 / qpmin=3 / qpmax=69 / qpstep=4 / cplxblur=20.0 / qblur=0.5 / ip_ratio=1.40 / aq=1:1.00Язык : EnglishОсновные цвета : BT.709-5, BT.1361, IEC 61966-2-4, SMPTE RP177Характеристики трансфера : BT.709-5, BT.1361Коэффициенты матрицы : BT.709-5, BT.1361, IEC 61966-2-4 709, SMPTE RP177
АудиоИдентификатор : 2Формат : AC-3Формат/Информация : Audio Coding 3Расширение режима : CM (complete main)Режим смешивания : Header strippingИдентификатор кодека : A_AC3Продолжительность : 1 ч. 40 м.Вид битрейта : ПостоянныйБитрейт : 384 Кбит/секКанал(ы) : 2 канала(ов)Расположение каналов : Front: L RЧастота : 48,0 КГцБитовая глубина : 16 битМетод сжатия : С потерямиРазмер потока : 276 Мбайт (7%)Язык : English
Меню00:00:00.000 : en:Introduction00:01:29.250 : en:School00:07:09.583 : en:Bloody Well Right00:13:32.250 : en:The Logical Song00:17:21.500 : en:Goodbye Stranger00:24:04.416 : en:Breakfast In America00:26:40.916 : en:Hide In Your Shell00:33:29.208 : en:Asylum00:40:10.208 : en:Even In The Quietest Moments00:44:59.291 : en:Give A Little Bit00:49:25.833 : en:Dreamer00:52:49.416 : en:Rudy00:59:42.000 : en: Take The Long Way Home01:04:16.958 : en:Another Man s Woman01:11:47.458 : en:Child Of Vision01:19:03.708 : en:Fool s Overture01:29:58.791 : en:Two Of Us01:31:27.916 : en:Crime Of The Century01:37:57.916 : en:From Now On (credits)01:40:31.666 : en:and

Скриншоты

Other forum [Profile] [PM]
Display posts from previous:    
Reply to topic

The time now is: Today 16:27

All times are GMT + 3 Hours



You cannot post new topics in this forum
You cannot reply to topics in this forum
You cannot edit your posts in this forum
You cannot delete your posts in this forum
You cannot vote in polls in this forum
You cannot attach files in this forum
You cannot download files in this forum