Today is a free download without charge Download

Земфира - Расскажи снегурочка (Вечерний Ургант, 29.12.2012) [2012 г., Rock, HDTV 1080]

Reply to topic
 
Author
Message

Omen ®

Longevity: 8 years 3 months

Posts: 181087

Торрент-статистика

Post 30-Dec-2012 02:24

[Quote]

Земфира - Расскажи снегурочка (Вечерний Ургант, 29.12.2012)
Страна: Россия
Жанр: Rock
Продолжительность: 00:02:16
Год выпуска: 2012 г.
Описание: Выступление Земфиры на шоу Первого канала "Вечерний Ургант" 29 декабря 2012 года
Треклист: Расскажи снегурочка
Источник: собственный рип
Доп. информация: Релиз -

Рип чистый. Без посторонних надписей. Выкладывается как есть.
Качество: HDTV 1080
Формат: TS/M2TS
Видео кодек: AVC
Аудио кодек: AC3
Видео: 1920x1080 (16:9) 25.00fps 12.5 Mbps, 0.242 bit/pixel
Аудио: AC3 384 Kbps, 2 channels

Скриншоты

Скринлист

MI

GeneralID : 1 (0x1)Complete name : J:\ВЫКЛАДКА\HDTV\Земфира - Расскажи снегурочка (Вечерний Ургант, 29.12.2012) (MYDIMKA).tsFormat : MPEG-TSFile size : 225 MiBDuration : 2mn 16sOverall bit rate mode : VariableOverall bit rate : 13.8 Mbps
VideoID : 305 (0x131)Menu ID : 1 (0x1)Format : AVCFormat/Info : Advanced Video CodecFormat profile : [email protected] settings, CABAC : YesFormat settings, ReFrames : 3 framesCodec ID : 27Duration : 2mn 16sBit rate : 12.5 MbpsWidth : 1 920 pixelsHeight : 1 080 pixelsDisplay aspect ratio : 16:9Frame rate : 25.000 fpsStandard : ComponentColor space : YUVChroma subsampling : 4:2:0Bit depth : 8 bitsScan type : InterlacedScan order : Top Field FirstBits/(Pixel*Frame) : 0.242Stream size : 204 MiB (91%)Color primaries : BT.709Transfer characteristics : BT.709Matrix coefficients : BT.709
Audio #1ID : 404 (0x194)Menu ID : 1 (0x1)Format : AC-3Format/Info : Audio Coding 3Mode extension : CM (complete main)Format settings, Endianness : BigCodec ID : 6Duration : 2mn 16sBit rate mode : ConstantBit rate : 384 KbpsChannel(s) : 2 channelsChannel positions : Front: L RSampling rate : 48.0 KHzBit depth : 16 bitsCompression mode : LossyDelay relative to video : -40msStream size : 6.24 MiB (3%)Language : English
Audio #2ID : 405 (0x195)Menu ID : 1 (0x1)Format : MPEG AudioFormat version : Version 1Format profile : Layer 2Codec ID : 3Duration : 2mn 16sBit rate mode : ConstantBit rate : 192 KbpsChannel(s) : 2 channelsSampling rate : 48.0 KHzCompression mode : LossyDelay relative to video : -40msStream size : 3.12 MiB (1%)Language : English
Other forum [Profile] [PM]
Display posts from previous:    
Reply to topic

The time now is: Today 10:38

All times are GMT + 3 Hours



You cannot post new topics in this forum
You cannot reply to topics in this forum
You cannot edit your posts in this forum
You cannot delete your posts in this forum
You cannot vote in polls in this forum
You cannot attach files in this forum
You cannot download files in this forum