Today is a free download without charge Download

Красотка / Pretty Woman (Гэрри Маршалл / Garry Marshall) [1990 , США , мелодрама, комедия , BDRip1080р ]

Reply to topic
 
Author
Message

Delia ®

Gender:

Longevity: 10 years

Posts: 1821

Торрент-статистика

Post 28-Dec-2012 14:07

[Quote]

-КрасоткаPretty Woman«Она вошла в его жизнь с улицы и украла его сердце»-- Год выпуска: 1990
Страна: США
Жанр: мелодрама, комедия
Продолжительность: 01:59:37
Перевод: Профессиональный (полное дублирование)
Режиссер: Гэрри Маршалл / Garry Marshall- В ролях: Ричард Гир (Edward Lewis), Джулия Робертс (Vivian Ward), Ральф Беллами (James Morse), Джейсон Александр (Philip Stuckey), Лора Сан Джакомо (Kit De Luca), Алекс Хайд-Вайт (David Morse), Эми Ясбек (Elizabeth Stuckey), Элинор Донахью (Bridget), Гектор Элизондо (Barney Thompson), Джудит Болдуин (Susan), Джейсон Рендал (Magician), Билл Эпплбаум (Howard)-Описание: Финансовый магнат Эдвард Льюис, проезжая по ночному городу, останавливается около красивой женщины. Ее зовут Вивьен и она берет только наличными. Наутро он понимает, что не хочет расставаться с ней и предлагает девушке остаться в его номере в отеле еще на некоторое время - за дополнительный гонорар.
Вивьен оказывается в море блеска и лжи. Она терпит небрежное отношение к ней ради понравившегося мужчины, который перестал быть для нее просто клиентом.
-
MPAA: - Лицам до 17 лет обязательно присутствие взрослого--
Качество: BDRip
Контейнер: MKV
Видео: AVC, 1920x1040 (16:9), 7850 kbps, 23,976 fps, 0,164 bpp
Аудио №1: русский /; AC3 /; 5.1 /; 48 kHz /; 640 kbps /; 16 bit; |DUB CEE (Нева)|
Аудио №2: русский /; AC3 /; 2.0 /; 48 kHz /; 192 kbps /; 16 bit; |DUB ОРT "новый"|
Аудио №3: русский /; AC3 /; 5.1 /; 48 kHz /; 448 kbps /; 16 bit; |DVO ОРТ "cтарый"|
Аудио №4: английский /; AC3 /; 5.1 /; 48 kHz /; 384 kbps /; 16 bit
Субтитры №1: русские
Субтитры №2: английские
Навигация по главам: есть

x264

x264 [info]: frame I:1135 Avg QP:19.48 size:154821
x264 [info]: frame P:33472 Avg QP:22.07 size: 71242
x264 [info]: frame B:137469 Avg QP:23.87 size: 32581
--

Media Info

General
Unique ID : 177582660281176260715313490643414820692 (0x85992D22416398DD96297BC13FF22754)
Complete name : E:\Torrent\Pretty Woman. 1990.BDRip-F.HD.mkv
Format : Matroska
Format version : Version 4 / Version 2
File size : 7.95 GiB
Duration : 1h 59mn
Overall bit rate : 9 513 Kbps
Encoded date : UTC 2010-02-22 21:41:31
Writing application : mkvmerge v5.9.0 ('On The Loose') built on Dec 9 2012 15:37:01
Writing library : libebml v1.3.0 + libmatroska v1.4.0
Video
ID : 1
Format : AVC
Format/Info : Advanced Video Codec
Format profile : [email protected]
Format settings, CABAC : Yes
Format settings, ReFrames : 4 frames
Codec ID : V_MPEG4/ISO/AVC
Duration : 1h 59mn
Bit rate : 7 850 Kbps
Width : 1 920 pixels
Height : 1 040 pixels
Display aspect ratio : 16:9
Frame rate : 23.976 fps
Color space : YUV
Chroma subsampling : 4:2:0
Bit depth : 8 bits
Scan type : Progressive
Bits/(Pixel*Frame) : 0.164
Stream size : 6.40 GiB (81%)
Writing library : x264 core 129 r2230+696+35 805d074 tMod [[email protected] X86_64]
Encoding settings : cabac=1 / ref=4 / deblock=1:-3:-3 / analyse=0x3:0x113 / me=umh / subme=10 / psy=1 / fade_compensate=0.00 / psy_rd=0.80:0.07 / mixed_ref=1 / me_range=32 / chroma_me=1 / trellis=2 / 8x8dct=1 / cqm=0 / deadzone=21,11 / fast_pskip=0 / chroma_qp_offset=-3 / threads=6 / lookahead_threads=1 / sliced_threads=0 / nr=0 / decimate=0 / interlaced=0 / bluray_compat=0 / constrained_intra=0 / fgo=0 / bframes=8 / b_pyramid=2 / b_adapt=2 / b_bias=0 / direct=3 / weightb=1 / open_gop=0 / weightp=2 / keyint=240 / keyint_min=23 / scenecut=40 / intra_refresh=0 / rc=2pass / mbtree=0 / bitrate=7850 / ratetol=1.0 / qcomp=0.70 / qpmin=0 / qpmax=69 / qpstep=4 / cplxblur=20.0 / qblur=0.5 / ip_ratio=1.35 / pb_ratio=1.25 / aq=2:0.70
Language : English
Default : Yes
Forced : No
Color primaries : BT.709-5, BT.1361, IEC 61966-2-4, SMPTE RP177
Transfer characteristics : BT.709-5, BT.1361
Matrix coefficients : BT.709-5, BT.1361, IEC 61966-2-4 709, SMPTE RP177
Audio #1
ID : 2
Format : AC-3
Format/Info : Audio Coding 3
Mode extension : CM (complete main)
Codec ID : A_AC3
Duration : 1h 59mn
Bit rate mode : Constant
Bit rate : 640 Kbps
Channel(s) : 6 channels
Channel positions : Front: L C R, Side: L R, LFE
Sampling rate : 48.0 KHz
Bit depth : 16 bits
Compression mode : Lossy
Stream size : 548 MiB (7%)
Title : DUB CEE (Нева)
Language : Russian
Default : Yes
Forced : No
Audio #2
ID : 3
Format : AC-3
Format/Info : Audio Coding 3
Mode extension : CM (complete main)
Codec ID : A_AC3
Duration : 1h 59mn
Bit rate mode : Constant
Bit rate : 192 Kbps
Channel(s) : 2 channels
Channel positions : Front: L R
Sampling rate : 48.0 KHz
Bit depth : 16 bits
Compression mode : Lossy
Stream size : 164 MiB (2%)
Title : DUB ОРT "новый"
Language : Russian
Default : No
Forced : No
Audio #3
ID : 4
Format : AC-3
Format/Info : Audio Coding 3
Mode extension : CM (complete main)
Codec ID : A_AC3
Duration : 1h 59mn
Bit rate mode : Constant
Bit rate : 448 Kbps
Channel(s) : 6 channels
Channel positions : Front: L C R, Side: L R, LFE
Sampling rate : 48.0 KHz
Bit depth : 16 bits
Compression mode : Lossy
Stream size : 383 MiB (5%)
Title : DVO ОРТ "cтарый"
Language : Russian
Default : No
Forced : No
Audio #4
ID : 5
Format : AC-3
Format/Info : Audio Coding 3
Mode extension : CM (complete main)
Codec ID : A_AC3
Duration : 1h 59mn
Bit rate mode : Constant
Bit rate : 384 Kbps
Channel(s) : 6 channels
Channel positions : Front: L C R, Side: L R, LFE
Sampling rate : 48.0 KHz
Bit depth : 16 bits
Compression mode : Lossy
Stream size : 329 MiB (4%)
Language : English
Default : No
Forced : No
Text #1
ID : 6
Format : UTF-8
Codec ID : S_TEXT/UTF8
Codec ID/Info : UTF-8 Plain Text
Language : Russian
Default : No
Forced : No
Text #2
ID : 7
Format : UTF-8
Codec ID : S_TEXT/UTF8
Codec ID/Info : UTF-8 Plain Text
Language : English
Default : No
Forced : No
Menu
00:00:00.000 : en:Opening Credits
00:09:26.399 : en:Lookin' For A Date?
00:13:39.235 : en:In The Driver's Seat
00:18:51.130 : en:The Penthouse
00:34:00.037 : en:A Business Proposition
00:41:51.967 : en:Trouble At The Hotel
00:44:46.684 : en:A Setback
00:49:52.030 : en:Working Dinner
00:54:50.078 : en:Love On A Piano
01:00:35.757 : en:Shopping Spree
01:08:36.487 : en:At The Polo Match
01:17:20.636 : en:Pillow Talk
01:21:09.322 : en:Dressed To The Nines
01:29:10.178 : en:Just Semantics
01:35:29.140 : en:A Change Of Interest
01:42:23.637 : en:Unpleasant Caller
01:48:39.596 : en:Back To Reality
01:52:34.456 : en:Princess Vivian
01:56:27.188 : en:End Credits

Знаете ли Вы, что...

  • На постере к фильму представлена лишь некоторая часть Джулии Робертс. Дело в том, что голову Джулии наложили на тело Шэйлли Мишель. На том же постере волосы Ричарда Гира каштановые, а в самой картине седеющие.
  • Опера, которой Ричард Гир очаровывает Джулию Робертс, носит название La Traviata (итал. «Сбившаяся с пути»). Она повествует о проститутке, влюбляющейся в богатого мужчину.
  • Ричард Гир на самом деле играет на фортепьяно. К тому же, музыкальное произведение, которое он играл, Гир сочинил сам.
  • Спортивная машина, которую Ричард Гир берёт на время в начале фильма - Лотус Эсприт (Lotus Esprit).
  • В ранней версии сценария Вивьен принимала кокаин; частью сделки являлось то, что она должна была отказаться от него на неделю. Ей нужны были деньги, чтобы поехать в Диснэйлэнд. Эдвард, в конечном счете, выкидывает её из машины и уезжает. По сценарию фильм должен был закончиться тем, что Вивьен и её подруга /личность с низкой социальной ответственностью/ едут в автобусе в Диснэйлэнд.
  • В самом начале съемок Ричард Гир рьяно взялся за исполнение своей роли, но Гэрри Маршалл отвёл его в сторонку и сказал: «Нет, нет, нет. Ричард. В этом фильме действует один из вас. А другой из вас нет. Угадай, кто из них ты?»
  • Красная куртка, которую носит Вивьен, была куплена за 30$ на улице у кино-билетёра незадолго до начала съёмок.
  • В финальной сцене Эдвард исполняет серенаду для Вивьен вместе с записью арии из La Traviata (итал. «Сбившаяся с пути»). В арии есть вокальное соло, сопровождаемое темой на струнных инструментах и на трубе. Эта аранжировка не являлась оригиналом оперы, а была адаптирована для фильма.
  • Это последний фильм Ральфа Бэллами.
  • Фильм, который смотрит Вивьен, перед тем, как спуститься вниз к Эдварду, называется «Шарада» (1963). Главные роли в этой картине исполнили Одри Хэпбёрн и Кэри Грант.
  • Сцена, в которой Эдвард защёлкивает пальцы Вивьен футляром с ожерельем, была сымпровизирована Гиром, а реакция Робертс (смех) была абсолютно естественной. Фильм-мейкерам понравилось это настолько, что они решили оставить её.
  • Машина, на которой Эдвард подбирает Вивьен, принадлежала продюсеру Нэнси Гроссу.
  • Рабочее название фильма - «$3,000».
  • Первоначально считалось, что Кристофер Рив исполнит роль Эдварда Льюиса.
  • Аль Пачино также отказался от роли Эдварда Льюиса.
  • Изначально роль Вивьен была предназначена Молли Рингвалд, но она от неё отказалась.
  • Диснеевские продюсеры были против Джулии Робертс в роли Вивьен, вместо неё они хотели Мэг Райн.
  • В самом начале картины можно заметить, что некоторые неоновые буквы в отеле, где живёт Вивьен, выгорели. Единственные оставшиеся светящиеся буквы - «HO» (от «hotel»/гостиница, «ho» на английском созвучно с «whore»/шлюха).
  • Ожерелье, которое Вивьен надевает в оперу, в действительности стоит $250,000. Во время съемок вооружённый сотрудник службы безопасности из ювелирного магазина всё время стоял за режиссёром.
  • Дэрил Хэнна отказалась от роли Вивьен, предполагая, что после этой роли почувствует себя опороченной женщиной.
  • Фильм, выбранный большинством голосов слушателей лондонской радиостанции «Capital FM» номером 4 в списке картин, строго рекомендованных к просмотру.
  • Снимая сцену, в ходе которой Вивьен лежит на полу в пентхаусе Эдварда и смотрит повторы старого сериала «Я люблю Люси» (1951), дабы достигнуть неподдельного смеха, режиссёру Гэрри Маршалу пришлось щекотать ступни Робертс (разумеется, это осталось за кадром), чтобы заставить её так истерично смеяться.
  • В период подготовки к съемкам «Красотки» Джулия Робертс постоянно находилась с женой Гарри Маршалла, которая руководила бесплатной клиникой, расположенной на бульваре Голливуда в Лос-Анджелесе.
  • Режиссёрская версия фильма имеет хронометраж 125 минут.


Скриншоты

     
     

_________________
Человек – это канат, натянутый между животным и сверхчеловеком, – канат над пропастью.
В человеке ценно то, что он мост, а не цель. Фридрих Ницше
Other forum [Profile] [PM]
Display posts from previous:    
Reply to topic

The time now is: Today 11:05

All times are GMT + 3 Hours



You cannot post new topics in this forum
You cannot reply to topics in this forum
You cannot edit your posts in this forum
You cannot delete your posts in this forum
You cannot vote in polls in this forum
You cannot attach files in this forum
You cannot download files in this forum