Today is a free download without charge Download

The Kennedy Center Honors 2012 [2012, Rock, HDTVRip 720p]

Reply to topic
 
Author
Message

Omen ®

Longevity: 8 years 3 months

Posts: 181087

Торрент-статистика

Post 28-Dec-2012 03:36

[Quote]

The Kennedy Center Honors 2012
Жанр: Rock
Продолжительность: 01:30:17
Год выпуска: 2012
Доп. информация: Без перевода.
Описание: Призывники 2012 года: Buddy Guy, Dustin Hoffman, Led Zeppelin (John Paul Jones, Jimmy Page и Robert Plant), David Letterman и Natalia Makarova.
Качество: HDTVRip 720p
Контейнер: MKV
Видео кодек: H.264
Аудио кодек: AC3
Видео: H.264 / 1280x720p / ~2942 Kbps / 29.970 fps
Аудио: AC-3 / 5.1 / 48 kHz / 384 kbps / 16-bit

MediaInfo

GeneralUnique ID : 194902419884404338824647241474838079832 (0x92A0D7361390FB7AA0DBE749DCBFA958)Complete name : D:\The Kennedy Center Honors 2012.mkvFormat : MatroskaFormat version : Version 1File size : 2.14 GiBDuration : 1h 30mnOverall bit rate : 3 393 KbpsEncoded date : UTC 2012-12-27 08:01:40Writing application : mkvmerge v2.5.2 ('Stranger in your Soul') built on Feb 28 2009 18:58:17Writing library : libebml v0.7.7 + libmatroska v0.8.1
VideoID : 2Format : AVCFormat/Info : Advanced Video CodecFormat profile : [email protected] settings, CABAC : YesFormat settings, ReFrames : 5 framesCodec ID : V_MPEG4/ISO/AVCDuration : 1h 30mnBit rate : 2 942 KbpsWidth : 1 280 pixelsHeight : 720 pixelsDisplay aspect ratio : 16:9Frame rate mode : ConstantFrame rate : 29.970 fpsColor space : YUVChroma subsampling : 4:2:0Bit depth : 8 bitsScan type : ProgressiveBits/(Pixel*Frame) : 0.106Stream size : 1.85 GiB (87%)Writing library : x264 core 129 r2230 1cffe9fEncoding settings : cabac=1 / ref=5 / deblock=1:0:0 / analyse=0x3:0x113 / me=umh / subme=8 / psy=1 / psy_rd=1.00:0.00 / mixed_ref=1 / me_range=16 / chroma_me=1 / trellis=1 / 8x8dct=1 / cqm=0 / deadzone=21,11 / fast_pskip=1 / chroma_qp_offset=-2 / threads=12 / lookahead_threads=2 / sliced_threads=0 / nr=0 / decimate=1 / interlaced=0 / bluray_compat=0 / constrained_intra=0 / bframes=3 / b_pyramid=2 / b_adapt=2 / b_bias=0 / direct=3 / weightb=1 / open_gop=0 / weightp=2 / keyint=250 / keyint_min=25 / scenecut=40 / intra_refresh=0 / rc_lookahead=50 / rc=crf / mbtree=1 / crf=20.0 / qcomp=0.60 / qpmin=0 / qpmax=69 / qpstep=4 / ip_ratio=1.40 / aq=1:1.00Language : EnglishDefault : YesForced : NoMatrix coefficients : BT.709
AudioID : 1Format : AC-3Format/Info : Audio Coding 3Mode extension : CM (complete main)Format settings, Endianness : BigCodec ID : A_AC3Duration : 1h 30mnBit rate mode : ConstantBit rate : 384 KbpsChannel(s) : 6 channelsChannel positions : Front: L C R, Side: L R, LFESampling rate : 48.0 KHzBit depth : 16 bitsCompression mode : LossyStream size : 248 MiB (11%)Default : YesForced : No
Other forum [Profile] [PM]
Display posts from previous:    
Reply to topic

The time now is: Today 04:07

All times are GMT + 3 Hours



You cannot post new topics in this forum
You cannot reply to topics in this forum
You cannot edit your posts in this forum
You cannot delete your posts in this forum
You cannot vote in polls in this forum
You cannot attach files in this forum
You cannot download files in this forum