Today is a free download without charge Download

Marina And The Diamonds - Primadonna [2012 г., Indie pop, Rock, Master]

Reply to topic
 
Author
Message

Omen ®

Longevity: 8 years 4 months

Posts: 181087

Торрент-статистика

Post 27-Dec-2012 23:16

[Quote]

Marina And The Diamonds - Primadonna- Жанр: Indie pop, Rock
Продолжительность: 00:03:52
Год выпуска: 2012
Качество: Master
Контейнер: MOV
Видео: MPEG-4 AVC Video, 1920x1080 (1.778) at 25.000 fps, 40.5 Mbps
Аудио: 48 kHz, AAC, 2/0 (L,R), ~118.00 kbps avg
-

-

MediaInfo

Код:
Format                           : MPEG-4
Format profile                   : QuickTime
Codec ID                         : qt
File size                        : 1.10 GiB
Duration                         : 3mn 52s
Overall bit rate                 : 40.6 Mbps
Encoded date                     : UTC 2012-03-12 11:02:07
Tagged date                      : UTC 2012-03-12 11:02:42
Writing library                  : Apple QuickTime
Video
ID                               : 2
Format                           : AVC
Format/Info                      : Advanced Video Codec
Format profile                   : [email protected]
Format settings, CABAC           : No
Format settings, ReFrames        : 2 frames
Format settings, GOP             : M=2, N=32
Codec ID                         : avc1
Codec ID/Info                    : Advanced Video Coding
Duration                         : 3mn 52s
Bit rate mode                    : Variable
Bit rate                         : 40.5 Mbps
Width                            : 1 920 pixels
Height                           : 1 080 pixels
Display aspect ratio             : 16:9
Frame rate mode                  : Constant
Frame rate                       : 25.000 fps
Color space                      : YUV
Chroma subsampling               : 4:2:0
Bit depth                        : 8 bits
Scan type                        : Progressive
Bits/(Pixel*Frame)               : 0.781
Stream size                      : 1.09 GiB (100%)
Language                         : English
Encoded date                     : UTC 2012-03-12 11:01:01
Tagged date                      : UTC 2012-03-12 11:02:42
Color primaries                  : BT.709-5, BT.1361, IEC 61966-2-4, SMPTE RP177
Transfer characteristics         : BT.709-5, BT.1361
Matrix coefficients              : BT.709-5, BT.1361, IEC 61966-2-4 709, SMPTE RP177
Audio
ID                               : 1
Format                           : AAC
Format/Info                      : Advanced Audio Codec
Format profile                   : LC
Codec ID                         : 40
Duration                         : 3mn 52s
Bit rate mode                    : Constant
Bit rate                         : 118 Kbps
Nominal bit rate                 : 128 Kbps
Channel(s)                       : 2 channels
Channel positions                : Front: L R
Sampling rate                    : 48.0 KHz
Compression mode                 : Lossy
Stream size                      : 3.28 MiB (0%)
Language                         : English
Encoded date                     : UTC 2012-03-12 11:01:00
Tagged date                      : UTC 2012-03-12 11:02:42
-
Other forum [Profile] [PM]
Display posts from previous:    
Reply to topic

The time now is: Today 09:44

All times are GMT + 3 Hours



You cannot post new topics in this forum
You cannot reply to topics in this forum
You cannot edit your posts in this forum
You cannot delete your posts in this forum
You cannot vote in polls in this forum
You cannot attach files in this forum
You cannot download files in this forum