Today is a free download without charge Download

Зеленая пилюля (Юрий Скирда) [1974, Рисованный мультфильм, DVDRip]

Reply to topic
 
Author
Message

Omen ®

Longevity: 7 years 11 months

Posts: 181087

Торрент-статистика

Post 26-Dec-2012 23:40

[Quote]

Зеленая пилюля
Страна: СССР
Жанр: Рисованный мультфильм
Продолжительность: 00:09:32
Год выпуска: 1974
Русские субтитры: нет
Режиссёр: Юрий Скирда
Роли озвучивали: Н. Трофимова, З. Москаева, В. Коршун, В. Пупков
Описание: Проснулся утром один мальчик, вспомнил, что опять нужно идти в школу, и написал записку о том, что он заболел, нужно вызвать врача. Пришел рыжий странный доктор и дал пилюли, после которых в школу вообще идти не надо. Сказал, что они волшебные. Мальчик все-таки пошел в школу, но опять опоздал. Тогда-то он и решил принять пилюлю, после чего начались совершенно невероятные события ...
Доп. информация: „Киевнаучфильм“
Сценарист: Софья Прокофьева
Художники-постановщики: Л. Валуева, Юрий Скирда
Аниматоры: С. Березовская, Александр Лавров, Наталья Марченкова, Э. Перетятько, Адольф Педан, Михаил Титов, Александр Викен
Оператор: Анатолий Гаврилов
Директор: Иван Мазепа
Композитор: Л. Вербицкий
Звукооператор: Ирина Чефранова
Редактор: Владимир Гайдай
Качество: DVDRip
Формат: AVI
Видео: 704x528 (1.33:1), 25 fps, XviD build 65 ~2147 kbps avg, 0.23 bit/pixel
Аудио: 48 kHz, AC3 Dolby Digital, 1/0 (C) ch, ~96.00 kbps avg
Субтитры: нет

Подробные технические данные

Формат : AVIФормат/Информация : Audio Video InterleaveРазмер файла : 154 МбайтПродолжительность : 9 м. 32 с.Общий поток : 2254 Кбит/секПрограмма кодирования : VirtualDubModRus 1.5.10.2 (build 2542/release)Правообладатель : Rutracker.orgПримечание : DVDRip by dvdss
ВидеоИдентификатор : 0Формат : MPEG-4 VisualПрофиль формата : Advanced [email protected]Параметр BVOP формата : 2Параметр QPel формата : ДаПараметр GMC формата : Без точки переходаПараметр матрицы формата : ВыборочнаяИдентификатор кодека : XVIDИдентификатор кодека/Подсказка : XviDПродолжительность : 9 м. 32 с.Битрейт : 2148 Кбит/секШирина : 704 пикс.Высота : 528 пикс.Соотношение сторон : 4:3Частота кадров : 25,000 кадр/секЦветовое пространство : YUVПодвыборка цветности : 4:2:0Битовая глубина : 8 битТип развёртки : ПрогрессивнаяМетод сжатия : С потерямиБит/(Пиксели*Кадры) : 0.231Размер потока : 147 Мбайт (95%)Библиотека кодирования : XviD 65
АудиоИдентификатор : 1Формат : AC-3Формат/Информация : Audio Coding 3Расширение режима : CM (complete main)Идентификатор кодека : 2000Продолжительность : 9 м. 32 с.Вид битрейта : ПостоянныйБитрейт : 96,0 Кбит/секКанал(ы) : 1 каналРасположение каналов : Front: CЧастота : 48,0 КГцБитовая глубина : 16 битМетод сжатия : С потерямиРазмер потока : 6,55 Мбайт (4%)Выравнивание : Разделение по промежуткамПродолжительность промежутка : 40 мс. (1,00 видеокадр)Время предзагрузки промежутка : 500 ms

Скриншоты

Other forum [Profile] [PM]
Display posts from previous:    
Reply to topic

The time now is: Today 10:49

All times are GMT + 3 Hours



You cannot post new topics in this forum
You cannot reply to topics in this forum
You cannot edit your posts in this forum
You cannot delete your posts in this forum
You cannot vote in polls in this forum
You cannot attach files in this forum
You cannot download files in this forum