Today is a free download without charge Download

Камасутра - позиции цветущего сада / Kama Sutra - positions of a blossoming garden (2005) DVDRip

Reply to topic
 
Author
Message

Omen ®

Longevity: 7 years 10 months

Posts: 181087

Торрент-статистика

Post 26-Dec-2012 22:03

[Quote]

Камасутра - позиции цветущего сада
Kama Sutra - positions of a blossoming garden
- Русское название: Камасутра - позиции цветущего сада
Оригинальное название: Kama Sutra - positions of a blossoming garden
Производство: США / Focus Film International Ltd.
Режиссер: Кеннет Кнолл
Год выпуска: 2005
Жанр: Эротика, документальный
Описание:
Позиции Цветущего сада самые невероятные и очень возбуждающие из всех позиций Камасутры. Изучив их, Вы сможете без труда переходить от одной к другой, не тратя время зря и возбуждаясь еще больше. Созданные в XVI веке арабским мудрецом эти позиции до сих пор остаются очень актуальными, а некоторые из них пользуются огромной популярностью среди сексологов всего мира для разнообразия сексуальной жизни обращающихся к ник семей. Эта программа содержит качественное видео с подробными комментариями. Каждое движение подробно описывается, также даются рекомендации ведущих сексологов мира для обоих партнеров.
Откройте дверь в мир истинно красивой и чувственной ЭРОТИКИ!
Продолжительность: 00:56:20

Перевод: Одноголосый закадровый, профессиональный
Видеокодек: Xvid
Битрейт видео: ~1473 Кбит/сек
Размер кадра: 704x528
Качество видео: DVDRip
Аудиокодек: AC3 6 каналов
Битрейт аудио: 384 Кбит/сек

MediaInfo:

Общее
Полное имя : Kamasutra.pozicii.cvetuwego.sada.2005.XviD.DVDRip.avi
Формат : AVI
Формат/Информация : Audio Video Interleave
Размер файла : 754 Мбайт
Продолжительность : 56 м.
Общий поток : 1869 Кбит/сек
Видео
Идентификатор : 0
Формат : MPEG-4 Visual
Профиль формата : [email protected]
Параметр BVOP формата : Нет
Параметр QPel формата : Нет
Параметр GMC формата : Без точки перехода
Параметр матрицы формата : Default (H.263)
Идентификатор кодека : XVID
Идентификатор кодека/Подсказка : XviD
Продолжительность : 56 м.
Продолжительность оригинала : 56 м.
Битрейт : 1473 Кбит/сек
Ширина : 704 пикселя
Высота : 528 пикселей
Соотношение сторон : 4:3
Частота кадров : 29,970 кадров/сек
Цветовое пространство : YUV
Субдискретизация насыщенности : 4:2:0
Битовая глубина : 8 бит
Тип развёртки : Прогрессивная
Метод сжатия : С потерями
Бит/(Пиксели*Кадры) : 0.132
Размер потока : 594 Мбайт (79%)
Библиотека кодирования : XviD 1.1.2 (UTC 2006-11-01)
Аудио
Идентификатор : 1
Формат : AC-3
Формат/Информация : Audio Coding 3
Расширение режима : CM (complete main)
Параметр Endianness формата : Big
Идентификатор кодека : 2000
Продолжительность : 56 м.
Вид битрейта : Постоянный
Битрейт : 384 Кбит/сек
Каналы : 6 каналов
Расположение каналов : Front: L C R, Side: L R, LFE
Частота : 48,0 КГц
Битовая глубина : 16 бит
Метод сжатия : С потерями
Размер потока : 155 Мбайт (21%)
Выравнивание : Соединение по промежуткам
Продолжительность промежутка : 32 мс. (0,96 видеокадр)

Рейтинг MPAA:

Рейтинг R - Детям до 17 лет обязательно присутствие родителей

Рейтинг R получают фильмы, в содержании которых обязательно содержится материал, предназначенный только для взрослой аудитории. Родителям рекомендуется хорошо подумать, прежде чем посмотреть такой фильм вместе со своими детьми.
Фильм, получивший рейтинг R, скорее всего содержит сексуальные сцены, эпизоды с употреблением наркотиков, нецензурную брань, фрагменты с насилием и т.д.
Скриншоты:
       
Other forum [Profile] [PM]
Display posts from previous:    
Reply to topic

The time now is: Today 22:04

All times are GMT + 3 Hours



You cannot post new topics in this forum
You cannot reply to topics in this forum
You cannot edit your posts in this forum
You cannot delete your posts in this forum
You cannot vote in polls in this forum
You cannot attach files in this forum
You cannot download files in this forum