Today is a free download without charge Download

В чужом ряду (Меняя полосу движения) / Changing Lanes (Роджер Мичелл / Roger Michell) [1080p] [2002 г., Триллер, драма, BDRip]

Reply to topic
 
Author
Message

Delia ®

Gender:

Longevity: 10 years

Posts: 1821

Торрент-статистика

Post 26-Dec-2012 18:47

[Quote]

-В чужом рядуChanging Lanes«Один неверный поворот влечет за собой другие...»-- Год выпуска: 2002
Страна: США
Жанр: триллер, драма
Продолжительность: 01:38:44
Перевод: Профессиональный (полное дублирование)
Режиссер: Роджер Мишелл / Roger Michell- В ролях: Бен Аффлек (Gavin Banek), Сэмюэл Л. Джексон (Doyle Gipson), Ким Стонтон (Valerie Gipson), Тони Коллетт (Michelle), Сидни Поллак (Stephen Delano), Тина Слоун (Mrs. Delano), Ричард Дженкинс (Walter Arnell), Акил Уолкер (Stephen Gipson), Коул Хоукинс (Danny Gipson), Айлин Гетз (Ellen), Дженнифер Дандас (Mina Dunne), Мэтт Мэллой (Ron Cabot)-Описание: Гэвин Банек - энергичный молодой человек, работающий юристом в фирме своего тестя на Уолл Стрит. Дойл Гипсон - представитель страховой компании, возвращающийся к нормальной жизни после алкоголизма. Его жена развелась с ним, и теперь планирует перебраться из Нью-Йорка в Портланд вместе с двумя их детьми.
Нью-Йорк, Пятница. Гипсон торопится в суд, чтобы отстоять там право видеться со своими сыновьями. Банек же едет на своем Мерседесе в суд, чтобы заверить одно многомиллионное завещание. Машины Банека и Гипсона оказываются в соседних рядах на дороге. Гипсон слишком занят обдумыванием своей речи в суде, а Банека отвлекает звонок по мобильному телефону. Они не замечают машин друг друга, один неверный поворот, и вот уже Банек и Гипсон - виновники дорожно-транспортного происшествия.
Жертв нет, однако ссора этих двух совершенно разных людей будет иметь большие последствия для каждого из них. Этот случай на дороге заставит двух незнакомцев развязать войну друг против друга. Со звериной ожесточенностью они будут пытаться отомстить друг другу, а гнев приведет каждого из них к краю самоуничтожения...
--
MPAA: - Лицам до 17 лет обязательно присутствие взрослого--
Качество: BDRip
Контейнер: MKV
Видео: AVC, 1920x816 (2.35:1), 7309 kbps, 23,976 fps, 0,195 bpp
Аудио №1: русский /; AC3 /; 5.1 /; 48 kHz /; 384 kbps /; 16 bit; ||
Аудио №2: английский /; AC3 /; 5.1 /; 48 kHz /; 384 kbps /; 16 bit
Субтитры №1: русские
Субтитры №2: английские
Навигация по главам: есть--

x264

x264 [info]: frame I:933 Avg QP:16.08 size:136137
x264 [info]: frame P:30577 Avg QP:18.40 size: 67441
x264 [info]: frame B:110546 Avg QP:20.89 size: 29076
x264 [info]: consecutive B-frames: 2.0% 2.3% 5.6% 24.4% 18.7% 32.9% 7.7% 5.4% 0.8% 0.2%

Media Info

General
Unique ID : 193066901848653144523654165716068025370 (0x913F552F5E642DE5BD2A51905AC5441A)
Complete name : E:\Changing Lanes(2002).BDRip-F.HD.mkv
Format : Matroska
Format version : Version 4 / Version 2
File size : 5.56 GiB
Duration : 1h 38mn
Overall bit rate : 8 066 Kbps
Encoded date : UTC 2010-02-22 21:41:31
Writing application : mkvmerge v5.9.0 ('On The Loose') built on Dec 9 2012 15:37:01
Writing library : libebml v1.3.0 + libmatroska v1.4.0
Video
ID : 1
Format : AVC
Format/Info : Advanced Video Codec
Format profile : [email protected]
Format settings, CABAC : Yes
Format settings, ReFrames : 5 frames
Codec ID : V_MPEG4/ISO/AVC
Duration : 1h 38mn
Bit rate : 7 309 Kbps
Width : 1 920 pixels
Height : 816 pixels
Display aspect ratio : 2.35:1
Frame rate : 23.976 fps
Color space : YUV
Chroma subsampling : 4:2:0
Bit depth : 8 bits
Scan type : Progressive
Bits/(Pixel*Frame) : 0.195
Stream size : 4.92 GiB (88%)
Writing library : x264 core 129 r2230 1cffe9f
Encoding settings : cabac=1 / ref=5 / deblock=1:-3:-3 / analyse=0x3:0x113 / me=umh / subme=10 / psy=1 / psy_rd=1.00:0.05 / mixed_ref=1 / me_range=32 / chroma_me=1 / trellis=2 / 8x8dct=1 / cqm=0 / deadzone=21,11 / fast_pskip=0 / chroma_qp_offset=-1 / threads=6 / lookahead_threads=1 / sliced_threads=0 / nr=0 / decimate=1 / interlaced=0 / bluray_compat=0 / constrained_intra=0 / bframes=9 / b_pyramid=2 / b_adapt=2 / b_bias=0 / direct=3 / weightb=1 / open_gop=0 / weightp=2 / keyint=240 / keyint_min=23 / scenecut=40 / intra_refresh=0 / rc=2pass / mbtree=0 / bitrate=7309 / ratetol=1.0 / qcomp=0.70 / qpmin=0 / qpmax=69 / qpstep=4 / cplxblur=20.0 / qblur=0.5 / ip_ratio=1.40 / pb_ratio=1.30 / aq=2:1.00
Language : English
Default : Yes
Forced : No
Color primaries : BT.709-5, BT.1361, IEC 61966-2-4, SMPTE RP177
Transfer characteristics : BT.709-5, BT.1361
Matrix coefficients : BT.709-5, BT.1361, IEC 61966-2-4 709, SMPTE RP177
Audio #1
ID : 2
Format : AC-3
Format/Info : Audio Coding 3
Mode extension : CM (complete main)
Codec ID : A_AC3
Duration : 1h 38mn
Bit rate mode : Constant
Bit rate : 384 Kbps
Channel(s) : 6 channels
Channel positions : Front: L C R, Side: L R, LFE
Sampling rate : 48.0 KHz
Bit depth : 16 bits
Compression mode : Lossy
Stream size : 271 MiB (5%)
Title : дубляж
Language : Russian
Default : Yes
Forced : No
Audio #2
ID : 3
Format : AC-3
Format/Info : Audio Coding 3
Mode extension : CM (complete main)
Codec ID : A_AC3
Duration : 1h 38mn
Bit rate mode : Constant
Bit rate : 384 Kbps
Channel(s) : 6 channels
Channel positions : Front: L C R, Side: L R, LFE
Sampling rate : 48.0 KHz
Bit depth : 16 bits
Compression mode : Lossy
Stream size : 271 MiB (5%)
Language : English
Default : No
Forced : No
Text #1
ID : 4
Format : UTF-8
Codec ID : S_TEXT/UTF8
Codec ID/Info : UTF-8 Plain Text
Language : Russian
Default : No
Forced : No
Text #2
ID : 5
Format : UTF-8
Codec ID : S_TEXT/UTF8
Codec ID/Info : UTF-8 Plain Text
Language : English
Default : No
Forced : No
Menu
00:00:00.000 : en:That Champagne Feeling
00:06:07.909 : en:The Accident
00:10:29.378 : en:The Missing Document
00:14:57.146 : en:Twenty Minutes
00:23:30.242 : en:Better Luck Next Time
00:31:46.070 : en:Bankrupt
00:40:14.537 : en:A New File
00:49:49.069 : en:Computer Voodoo
00:54:57.627 : en:Partners
00:59:57.343 : en:Back on the Fdr
01:03:14.916 : en:Confession
01:08:22.807 : en:The Boys
01:15:08.295 : en:Addicted to Chaos
01:24:23.641 : en:The Memory of Another Life
01:29:54.680 : en:At the End of the Day

Знаете ли Вы, что...

  • На следующий день после террористических атак 11 сентября 2001 года режиссёр Роджер Мичелл импульсивно удалил с помощью компьютерной графики из начальных кадров фильма появляющиеся там башни-близнецы. Позднее он понял ошибочность своего решения и во время перемонтажа восстановил первоначальный вид.
  • Сценарист Дэниел Пайн поучаствовал в работе над проектом, но так и не удостоился упоминания в титрах.
  • Режиссёр Роджер Мичелл лично посетил несколько собраний общества анонимных алкоголиков с тем, чтобы получить общие впечатления того, как подобная сцена с участием Сэмюэла Джексона должна выглядеть на экране.
  • Фиолетовая шляпа Сэмюэла Джексона была полностью выбором самого актёра. Примечательно, что его персонажи в различных фильмах довольно часто носят одежду этого цвета или имеют дело с теми или иными фиолетовыми предметами.
  • Во время съёмочного процесса Бен Аффлек был срочно отозван на несколько дней для внезапно потребовавшихся пересъёмок отдельных сцен «Пёрл-Харбора» (2001).
  • Сцена дорожной аварии была снята в течение двух дней на шоссе FDR Highway рядом с Нью-Йорком, которое на это время было перекрыто для обычного трафика.


Скриншоты

     
     

_________________
Человек – это канат, натянутый между животным и сверхчеловеком, – канат над пропастью.
В человеке ценно то, что он мост, а не цель. Фридрих Ницше
Other forum [Profile] [PM]
Display posts from previous:    
Reply to topic

The time now is: Today 13:51

All times are GMT + 3 Hours



You cannot post new topics in this forum
You cannot reply to topics in this forum
You cannot edit your posts in this forum
You cannot delete your posts in this forum
You cannot vote in polls in this forum
You cannot attach files in this forum
You cannot download files in this forum