Today is a free download without charge Download

Radiohead - Roseland Ballroom, New York City [2012, Rock-music, HDCamRip]

Reply to topic
 
Author
Message

Omen ®

Longevity: 8 years 4 months

Posts: 181087

Торрент-статистика

Post 26-Dec-2012 10:52

[Quote]

Radiohead - Roseland Ballroom, New York City
Жанр: Rock-music
Продолжительность: 01:54:19
Год выпуска: 2012
Описание: Концерт Radiohead состоявшийся 29 сентября 2011 года.
Доп. информация: Видео записано на несколько видеокамер.
Аудио с пульта, предоставлено самой группой.
Треклист:
Bloom
Little By Little
Staircase
The National Anthem
Feral
Subterranean Homesick Alien
Like Spinning Plates
All I Need
True Love Waits / Everything In Its Right Place
15 step
Weird Fishes / Arpeggi
Lotus Flower
Codex
Daily Mail
Good Morning, Mr. Magpie
Reckoner
Give Up The Ghost
Myxomatosis
Bodysnatchers
Supercollider
Nude
Качество: HDCamRip
Контейнер: MP4
Видео кодек: H.264
Аудио кодек: AAC
Видео: MPEG4 Video (H264), 1280x720, 15.0 Mbps, 59.94fps (29.970 fps)
Аудио: AAC, 320kbps, 48000Hz, stereo

Отчёт MediaInfo

GeneralComplete name : rh2011-09-29 roseland nyc us full multicam.mp4Format : MPEG-4Format profile : Base Media / Version 2Codec ID : mp42File size : 12.2 GiBDuration : 1h 54mnOverall bit rate mode : VariableOverall bit rate : 15.3 MbpsEncoded date : UTC 2012-11-14 09:11:19Tagged date : UTC 2012-11-14 09:11:19
VideoID : 2Format : AVCFormat/Info : Advanced Video CodecFormat profile : [email protected] settings, CABAC : YesFormat settings, ReFrames : 2 framesMuxing mode : Container [email protected] ID : avc1Codec ID/Info : Advanced Video CodingDuration : 1h 54mnBit rate mode : VariableBit rate : 15.0 MbpsMaximum bit rate : 20.0 MbpsWidth : 1 280 pixelsHeight : 720 pixelsDisplay aspect ratio : 16:9Frame rate mode : ConstantFrame rate : 59.940 fpsOriginal frame rate : 29.970 fpsColor space : YUVChroma subsampling : 4:2:0Bit depth : 8 bitsScan type : InterlacedScan order : Top Field FirstBits/(Pixel*Frame) : 0.271Stream size : 11.9 GiB (98%)Language : EnglishEncoded date : UTC 2012-11-14 09:11:19Tagged date : UTC 2012-11-14 09:11:19
AudioID : 1Format : AACFormat/Info : Advanced Audio CodecFormat profile : LCCodec ID : 40Duration : 1h 54mnBit rate mode : ConstantBit rate : 320 KbpsChannel(s) : 2 channelsChannel positions : Front: L RSampling rate : 48.0 KHzCompression mode : LossyDelay relative to video : -22msStream size : 262 MiB (2%)Language : EnglishEncoded date : UTC 2012-11-14 09:11:19Tagged date : UTC 2012-11-14 09:11:19

Оригинальный пост

RADIOHEAD
Roseland Ballroom
New York City NY US
September 29, 2011
Hi everybody!
It took a long time and a lot of work - but here's the multi-cam show of the second Roseland gig last Fall.
Our enormous thanks go to Radiohead for playing the pre-TKOL-tour shows and for choosing Roseland !
And we are immensely grateful to the band for generously providing the SBD audio for this project!! Thank you, Chris, for making things happen!
Of course, the project would have never happened without our dear video and audio contributors - thank you, guys!
As you are enjoying this show, we request that you consider making the world a better place and help out folks who have been deprived of most things that we have and are having a really hard time getting their lives on track.
Haiti Earthquake fund:
www.oxfamamerica.org/radiohead
Remember, this is a New York City show. And as we know, New York and the Tri-State area was just struck by a disaster of its own. Please consider helping your neighbors!
Hurricane Sandy Relief:
www.doctorswithoutborders.org
www.redcross.org/hurricane-sandy
Thank you all.
inez
Setlist:
bloom
little by little
staircase
the national anthem
feral
subterranean homesick alien
like spinning plates
all I need
true love waits/everything in its right place
15 step
weird fishes/arpeggi
lotus flower
codex
daily mail
good morning mr magpie
reckoner
-----
give up the ghost
myxomatosis
bodysnatchers
-----
supercollider
nude
overall project procurement and permissions: inez
video editing: Murmurs13 (guest editor: formengr on TNA)
audio editing: Murmurs13 (guest editor: formengr on Reckoner)
video contribution:
joebreslin: kodak m1033
inez: Panasocnic LUMIX DMC-ZS10
Hellspawn: Panasocnic LUMIX DMC-ZS3
godieinhell2: Panasocnic LUMIX DMC-ZS7
andrew sullivan: Panasonic LUMIX DMC-LX5
Colin B: Canon Powershot SD790IS
poseidon: Canon Powershot SD780IS
thegloaming09: Vado HD 1st gen and Olympus FE230
InkyBrown: Samsung SL620
Paul R: iPhone-4
audio contribution:
RADIOHEAD: FOH SBD (THANK YOU!!!!)
Edgar: AT831>SP-SPSB-11>Edirol R-09
Joe Cooper: SP-CMC-8>SP-SPSB-6>IRiver IHP-120
original video sources rendered w/ Vegas 9.0 Sony AVC codec > mp4 @ 15 mbps (1280x 720), each audio stream (SBD = .aiff and Edgar's = .m4a) rendered as .wav files.
DVD Architect 5.2 > NTSC DVD 720x480 @ 8 mbps, audio options are both PCM.
photos: inez
cover art: andrea chierici
Keeping Radiohub alive and well: joebreslin
Editor's Notes:
Thanks to all who stood quiet and still during the concert in order to tape and film it, and and then to share with us. Thanks to Radiohead for providing the soundboard recording! All tracks had at least two sources of video to use, which was a bonus. The many different video formats and settings made this a bit of a challenge and that, combined with life, are the reasons that this took so long to complete.
Special thanks to joebreslin for keeping the hub together all this time! Thanks to Inez for doing the footwork on this project, and lastly, thanks to form for his contribution (TNA editing and some audio patching) and for being the first person to help me out when I first came across the hub! YOU ROCK!
A lot of work went in to bring you this video. We hope that you will kindly make a donation to one of the organizations listed above - and below
Haiti Earthquake fund: www.oxfamamerica.org/radiohead
Hurricane Sandy Relief: www.redcross.org/hurricane-sandy
www.doctorswithoutborders.org/
Dedicated to the memory of Radiohead crewmember, Scott Johnson:
http://scottjohnsonbursary.com/
****Please share freely, never sell!!!*****
Other forum [Profile] [PM]
Display posts from previous:    
Reply to topic

The time now is: Today 21:27

All times are GMT + 3 Hours



You cannot post new topics in this forum
You cannot reply to topics in this forum
You cannot edit your posts in this forum
You cannot delete your posts in this forum
You cannot vote in polls in this forum
You cannot attach files in this forum
You cannot download files in this forum