Today is a free download without charge Download

Лесное трио / KJFG / Log Jam (6-13 серии) (Алексей Алексеев) [2007-2009, Короткометражные мультфильмы, WEBRip]

Reply to topic
 
Author
Message

Omen ®

Longevity: 7 years 11 months

Posts: 181087

Торрент-статистика

Post 26-Dec-2012 07:40

[Quote]

Лесное трио / KJFG / Log Jam (6-13 серии)
Страна: Россия
Жанр: Короткометражные мультфильмы
Продолжительность: 8 мин.
Год выпуска: 2007-2009
Перевод: Не требуется
Русские субтитры: нет
Режиссёр: Алексей Алексеев
Описание: Медведь, заяц и волк основали кружок лесной самодеятельности: медведь играет на щепе, заяц - отчаянная перкуссия, и соло - волчок. Иногда репетицию прерывает охотник с аутичной собачкой.
Качество: WEBRip
Формат: AVI
Видео: Xvid, 640x360, 29,97 fps, ≈1600 Kbps
Аудио: MP3, 44,1 KHz, 2 ch, 192 Kbps
Субтитры: отсутствуют

Список серий

06_Лесное трио - Бобёр07_Лесное трио - Утка08_Лесное трио - Снег09_Лесное трио - Рыбалка10_Лесное трио - Ветер11_Лесное трио - Дятел12_Лесное трио - Мухи13_Лесное трио - Орёл

Подробные технические данные

6 серия

E:\TORRENTS\Лесное трио\06_Лесное трио - Бобёр.avi
General
Complete name : E:\TORRENTS\Лесное трио\06_Лесное трио - Бобёр.avi
Format : AVI
Format/Info : Audio Video Interleave
File size : 12.8 MiB
Duration : 53s 987ms
Overall bit rate : 1 994 Kbps
Writing application : Lavf51.12.1
Video #0
ID : 0
Format : xvid
Codec ID : xvid
Duration : 53s 987ms
Bit rate : 1 788 Kbps
Width : 640 pixels
Height : 360 pixels
Display aspect ratio : 16:9
Frame rate : 29.970 fps
Bits/(Pixel*Frame) : 0.259
Stream size : 11.5 MiB (90%)
Audio #1
ID : 1
Format : MPEG Audio
Format version : Version 1
Format profile : Layer 3
Mode : Joint stereo
Mode extension : MS Stereo
Codec ID : 55
Codec ID/Hint : MP3
Duration : 53s 812ms
Bit rate mode : Constant
Bit rate : 192 Kbps
Channel(s) : 2 channels
Sampling rate : 44.1 KHz
Compression mode : Lossy
Stream size : 1.23 MiB (10%)
Alignment : Aligned on interleaves
Interleave, duration : 26 ms (0.79 video frame)
Interleave, preload duration : 26 ms

7 серия

E:\TORRENTS\Лесное трио\07_Лесное трио - Утка.avi General Complete name : E:\TORRENTS\Лесное трио\07_Лесное трио - Утка.avi Format : AVI Format/Info : Audio Video Interleave File size : 10.2 MiB Duration : 53s 487ms Overall bit rate : 1 592 Kbps Writing application : Lavf51.12.1 Video #0 ID : 0 Format : xvid Codec ID : xvid Duration : 53s 487ms Bit rate : 1 385 Kbps Width : 640 pixels Height : 360 pixels Display aspect ratio : 16:9 Frame rate : 29.970 fps Bits/(Pixel*Frame) : 0.201 Stream size : 8.83 MiB (87%) Audio #1 ID : 1 Format : MPEG Audio Format version : Version 1 Format profile : Layer 3 Mode : Joint stereo Mode extension : MS Stereo Codec ID : 55 Codec ID/Hint : MP3 Duration : 53s 368ms Bit rate mode : Constant Bit rate : 192 Kbps Channel(s) : 2 channels Sampling rate : 44.1 KHz Compression mode : Lossy Stream size : 1.22 MiB (12%) Alignment : Aligned on interleaves Interleave, duration : 26 ms (0.78 video frame) Interleave, preload duration : 26 ms

8 серия

E:\TORRENTS\Лесное трио\08_Лесное трио - Снег.avi General Complete name : E:\TORRENTS\Лесное трио\08_Лесное трио - Снег.avi Format : AVI Format/Info : Audio Video Interleave File size : 9.48 MiB Duration : 53s 587ms Overall bit rate : 1 483 Kbps Writing application : Lavf51.12.1 Video #0 ID : 0 Format : xvid Codec ID : xvid Duration : 53s 587ms Bit rate : 1 277 Kbps Width : 640 pixels Height : 360 pixels Display aspect ratio : 16:9 Frame rate : 29.970 fps Bits/(Pixel*Frame) : 0.185 Stream size : 8.16 MiB (86%) Audio #1 ID : 1 Format : MPEG Audio Format version : Version 1 Format profile : Layer 3 Mode : Joint stereo Mode extension : MS Stereo Codec ID : 55 Codec ID/Hint : MP3 Duration : 53s 473ms Bit rate mode : Constant Bit rate : 192 Kbps Channel(s) : 2 channels Sampling rate : 44.1 KHz Compression mode : Lossy Stream size : 1.22 MiB (13%) Alignment : Aligned on interleaves Interleave, duration : 26 ms (0.78 video frame) Interleave, preload duration : 26 ms

9 серия

E:\TORRENTS\Лесное трио\09_Лесное трио - Рыбалка.avi General Complete name : E:\TORRENTS\Лесное трио\09_Лесное трио - Рыбалка.avi Format : AVI Format/Info : Audio Video Interleave File size : 11.0 MiB Duration : 1mn 2s Overall bit rate : 1 469 Kbps Writing application : Lavf51.12.1 Video #0 ID : 0 Format : xvid Codec ID : xvid Duration : 1mn 2s Bit rate : 1 263 Kbps Width : 640 pixels Height : 360 pixels Display aspect ratio : 16:9 Frame rate : 29.970 fps Bits/(Pixel*Frame) : 0.183 Stream size : 9.48 MiB (86%) Audio #1 ID : 1 Format : MPEG Audio Format version : Version 1 Format profile : Layer 3 Mode : Joint stereo Codec ID : 55 Codec ID/Hint : MP3 Duration : 1mn 2s Bit rate mode : Constant Bit rate : 192 Kbps Channel(s) : 2 channels Sampling rate : 44.1 KHz Compression mode : Lossy Stream size : 1.44 MiB (13%) Alignment : Aligned on interleaves Interleave, duration : 26 ms (0.78 video frame) Writing library : LAME3.97

10 серия

E:\TORRENTS\Лесное трио\10_Лесное трио - Ветер.avi General Complete name : E:\TORRENTS\Лесное трио\10_Лесное трио - Ветер.avi Format : AVI Format/Info : Audio Video Interleave File size : 14.7 MiB Duration : 1mn 0s Overall bit rate : 2 034 Kbps Writing application : Lavf51.12.1 Video #0 ID : 0 Format : xvid Codec ID : xvid Duration : 1mn 0s Bit rate : 1 827 Kbps Width : 640 pixels Height : 360 pixels Display aspect ratio : 16:9 Frame rate : 29.970 fps Bits/(Pixel*Frame) : 0.265 Stream size : 13.2 MiB (90%) Audio #1 ID : 1 Format : MPEG Audio Format version : Version 1 Format profile : Layer 3 Mode : Joint stereo Mode extension : MS Stereo Codec ID : 55 Codec ID/Hint : MP3 Duration : 1mn 0s Bit rate mode : Constant Bit rate : 192 Kbps Channel(s) : 2 channels Sampling rate : 44.1 KHz Compression mode : Lossy Stream size : 1.39 MiB (9%) Alignment : Aligned on interleaves Interleave, duration : 26 ms (0.79 video frame) Writing library : LAME3.97

11 серия

E:\TORRENTS\Лесное трио\11_Лесное трио - Дятел.avi General Complete name : E:\TORRENTS\Лесное трио\11_Лесное трио - Дятел.avi Format : AVI Format/Info : Audio Video Interleave File size : 14.2 MiB Duration : 1mn 0s Overall bit rate : 1 976 Kbps Writing application : Lavf51.12.1 Video #0 ID : 0 Format : xvid Codec ID : xvid Duration : 1mn 0s Bit rate : 1 770 Kbps Width : 640 pixels Height : 360 pixels Display aspect ratio : 16:9 Frame rate : 29.970 fps Bits/(Pixel*Frame) : 0.256 Stream size : 12.7 MiB (90%) Audio #1 ID : 1 Format : MPEG Audio Format version : Version 1 Format profile : Layer 3 Mode : Joint stereo Codec ID : 55 Codec ID/Hint : MP3 Duration : 59s 977ms Bit rate mode : Constant Bit rate : 192 Kbps Channel(s) : 2 channels Sampling rate : 44.1 KHz Compression mode : Lossy Stream size : 1.37 MiB (10%) Alignment : Aligned on interleaves Interleave, duration : 26 ms (0.79 video frame) Writing library : LAME3.97

12 серия

E:\TORRENTS\Лесное трио\12_Лесное трио - Мухи.avi General Complete name : E:\TORRENTS\Лесное трио\12_Лесное трио - Мухи.avi Format : AVI Format/Info : Audio Video Interleave File size : 12.6 MiB Duration : 1mn 0s Overall bit rate : 1 751 Kbps Writing application : Lavf51.12.1 Video #0 ID : 0 Format : xvid Codec ID : xvid Duration : 1mn 0s Bit rate : 1 545 Kbps Width : 640 pixels Height : 360 pixels Display aspect ratio : 16:9 Frame rate : 29.970 fps Bits/(Pixel*Frame) : 0.224 Stream size : 11.2 MiB (88%) Audio #1 ID : 1 Format : MPEG Audio Format version : Version 1 Format profile : Layer 3 Mode : Joint stereo Mode extension : MS Stereo Codec ID : 55 Codec ID/Hint : MP3 Duration : 1mn 0s Bit rate mode : Constant Bit rate : 192 Kbps Channel(s) : 2 channels Sampling rate : 44.1 KHz Compression mode : Lossy Stream size : 1.38 MiB (11%) Alignment : Aligned on interleaves Interleave, duration : 26 ms (0.79 video frame)

13 серия

E:\TORRENTS\Лесное трио\13_Лесное трио - Орёл.avi General Complete name : E:\TORRENTS\Лесное трио\13_Лесное трио - Орёл.avi Format : AVI Format/Info : Audio Video Interleave File size : 10.4 MiB Duration : 1mn 0s Overall bit rate : 1 447 Kbps Writing application : Lavf51.12.1 Video #0 ID : 0 Format : xvid Codec ID : xvid Duration : 1mn 0s Bit rate : 1 242 Kbps Width : 640 pixels Height : 360 pixels Display aspect ratio : 16:9 Frame rate : 29.970 fps Bits/(Pixel*Frame) : 0.180 Stream size : 8.93 MiB (86%) Audio #1 ID : 1 Format : MPEG Audio Format version : Version 1 Format profile : Layer 3 Mode : Joint stereo Mode extension : MS Stereo Codec ID : 55 Codec ID/Hint : MP3 Duration : 1mn 0s Bit rate mode : Constant Bit rate : 192 Kbps Channel(s) : 2 channels Sampling rate : 44.1 KHz Compression mode : Lossy Stream size : 1.38 MiB (13%) Alignment : Aligned on interleaves Interleave, duration : 26 ms (0.79 video frame) Writing library : LAME3.97

Скриншоты


Other forum [Profile] [PM]
Display posts from previous:    
Reply to topic

The time now is: Today 19:01

All times are GMT + 3 Hours



You cannot post new topics in this forum
You cannot reply to topics in this forum
You cannot edit your posts in this forum
You cannot delete your posts in this forum
You cannot vote in polls in this forum
You cannot attach files in this forum
You cannot download files in this forum