Today is a free download without charge Download

Приключения старого дворника (Арнольд Буровс) [1985, Кукольный мультфильм, VHSRip]

Reply to topic
 
Author
Message

Omen ®

Longevity: 8 years 11 months

Posts: 181086

Торрент-статистика

Post 26-Dec-2012 07:40

[Quote]

Приключения старого дворника
Страна: СССР
Жанр: Кукольный мультфильм
Продолжительность: 00:17:21
Год выпуска: 1985
Русские субтитры: нет
Режиссёр: Арнольд Буровс
Описание: Сатирическая история о том, как робот решил помочь старому дворнику. Каждому неряхе он возвращал мусора в сто раз больше, чем тот набросал, а двоих особенно хулиганистых мальчишек в стеклянных клетках отправил в музей Природы. Лишь таким способом ему удалось приучить людей к порядку и чистоте...
Доп. информация: РИЖСКАЯ КИНОСТУДИЯ
Гос. премия Латвийской ССР 1987 года за программу фильмов режиссеру А. Буровсу.
Авторы сценария: А. Буровс, Я. Роккелнись.
Художник-постановщик: Г. Котелло.
Исходник для рипа предоставлен alenavova
Чистка звука Xfiles
Качество: VHSRip
Формат: AVI
Видео: 704x528 (1.33:1), 25 fps, XviD build 65 ~2097 kbps avg, 0.23 bit/pixel
Аудио: 48 kHz, AC3 Dolby Digital, 1/0 (C) ch, ~192.00 kbps avg
Субтитры: нет

Подробные технические данные

Формат : AVIФормат/Информация : Audio Video InterleaveРазмер файла : 286 МбайтПродолжительность : 17 м.Общий поток : 2299 Кбит/секПрограмма кодирования : VirtualDubModRus 1.5.10.2 (build 2542/release)Правообладатель : Rutracker.orgПримечание : VHSRip by dvdss
ВидеоИдентификатор : 0Формат : MPEG-4 VisualПрофиль формата : Advanced [email protected]Параметр BVOP формата : 2Параметр QPel формата : НетПараметр GMC формата : Без точки переходаПараметр матрицы формата : ВыборочнаяИдентификатор кодека : XVIDИдентификатор кодека/Подсказка : XviDПродолжительность : 17 м.Битрейт : 2098 Кбит/секШирина : 704 пикс.Высота : 528 пикс.Соотношение сторон : 4:3Частота кадров : 25,000 кадр/секЦветовое пространство : YUVПодвыборка цветности : 4:2:0Битовая глубина : 8 битТип развёртки : ПрогрессивнаяМетод сжатия : С потерямиБит/(Пиксели*Кадры) : 0.226Размер потока : 260 Мбайт (91%)Библиотека кодирования : XviD 65
АудиоИдентификатор : 1Формат : AC-3Формат/Информация : Audio Coding 3Расширение режима : CM (complete main)Идентификатор кодека : 2000Продолжительность : 17 м.Вид битрейта : ПостоянныйБитрейт : 192 Кбит/секКанал(ы) : 1 каналРасположение каналов : Front: CЧастота : 48,0 КГцБитовая глубина : 16 битМетод сжатия : С потерямиРазмер потока : 23,8 Мбайт (8%)Выравнивание : Разделение по промежуткамПродолжительность промежутка : 40 мс. (1,00 видеокадр)Время предзагрузки промежутка : 500 ms

Скриншоты

Other forum [Profile] [PM]
Similar theme
Forum Topic Author Torrent Replies Last Post
./templates/default/images/folder_dl.gif Фильмы 2001-2010 Римские приключения / To Rome with Love (Вуди Аллен)[2012, Мелодрама, комедия] BDRip 720p| Лицензия| DeadMmau5
1 | 0

0 | 604

9

2012-12-05 19:42
DeadMmau5 Latest
./templates/default/images/folder_dl.gif Обучающее видео Учебный центр 1C | Использование прикладного решения 1С Розница 8.2 Редакция 2 (2015) PCRec Varius
1 | 0

0 | 2508

44

2015-07-16 05:16
Varius Latest
./templates/default/images/folder_dl.gif Зарубежное кино (HD Video) Доктор Стрэндж / Doctor Strange (Скотт Дерриксон) [2016, Фантастика, Фэнтези, Боевик, Приключения, BDRip 720p] Dub (iTunes) Omen
1 | 0

0 | 805

3

2016-03-09 18:02
Omen Latest
./templates/default/images/folder_dl.gif Зарубежное кино Изгой-один: Звёздные войны. Истории / Rogue One: A Star Wars Story (Гарет Эдвардс) [2016 г., фантастика, боевик, приключения, BDRip 1080p] DUB | Чистый звук Theseus
1 | 0

0 | 7726

7

2017-03-22 11:05
Theseus Latest
./templates/default/images/folder_dl.gif Зарубежное кино (HD Video) Меч короля Артура / King Arthur: Legend of the Sword (Гай Ричи) [2017, фэнтези, боевик, драма, приключения, BDRip 1080p] DUB | Лицензия Theseus
1 | 0

0 | 7143

3

2017-08-16 20:14
Theseus Latest
Display posts from previous:    
Reply to topic

The time now is: Today 23:53

All times are GMT + 3 Hours



You cannot post new topics in this forum
You cannot reply to topics in this forum
You cannot edit your posts in this forum
You cannot delete your posts in this forum
You cannot vote in polls in this forum
You cannot attach files in this forum
You cannot download files in this forum