Today is a free download without charge Download

Приключения старого дворника (Арнольд Буровс) [1985, Кукольный мультфильм, VHSRip]

Reply to topic
 
Author
Message

Omen ®

Longevity: 7 years 11 months

Posts: 181087

Торрент-статистика

Post 26-Dec-2012 07:40

[Quote]

Приключения старого дворника
Страна: СССР
Жанр: Кукольный мультфильм
Продолжительность: 00:17:21
Год выпуска: 1985
Русские субтитры: нет
Режиссёр: Арнольд Буровс
Описание: Сатирическая история о том, как робот решил помочь старому дворнику. Каждому неряхе он возвращал мусора в сто раз больше, чем тот набросал, а двоих особенно хулиганистых мальчишек в стеклянных клетках отправил в музей Природы. Лишь таким способом ему удалось приучить людей к порядку и чистоте...
Доп. информация: РИЖСКАЯ КИНОСТУДИЯ
Гос. премия Латвийской ССР 1987 года за программу фильмов режиссеру А. Буровсу.
Авторы сценария: А. Буровс, Я. Роккелнись.
Художник-постановщик: Г. Котелло.
Исходник для рипа предоставлен alenavova
Чистка звука Xfiles
Качество: VHSRip
Формат: AVI
Видео: 704x528 (1.33:1), 25 fps, XviD build 65 ~2097 kbps avg, 0.23 bit/pixel
Аудио: 48 kHz, AC3 Dolby Digital, 1/0 (C) ch, ~192.00 kbps avg
Субтитры: нет

Подробные технические данные

Формат : AVIФормат/Информация : Audio Video InterleaveРазмер файла : 286 МбайтПродолжительность : 17 м.Общий поток : 2299 Кбит/секПрограмма кодирования : VirtualDubModRus 1.5.10.2 (build 2542/release)Правообладатель : Rutracker.orgПримечание : VHSRip by dvdss
ВидеоИдентификатор : 0Формат : MPEG-4 VisualПрофиль формата : Advanced [email protected]Параметр BVOP формата : 2Параметр QPel формата : НетПараметр GMC формата : Без точки переходаПараметр матрицы формата : ВыборочнаяИдентификатор кодека : XVIDИдентификатор кодека/Подсказка : XviDПродолжительность : 17 м.Битрейт : 2098 Кбит/секШирина : 704 пикс.Высота : 528 пикс.Соотношение сторон : 4:3Частота кадров : 25,000 кадр/секЦветовое пространство : YUVПодвыборка цветности : 4:2:0Битовая глубина : 8 битТип развёртки : ПрогрессивнаяМетод сжатия : С потерямиБит/(Пиксели*Кадры) : 0.226Размер потока : 260 Мбайт (91%)Библиотека кодирования : XviD 65
АудиоИдентификатор : 1Формат : AC-3Формат/Информация : Audio Coding 3Расширение режима : CM (complete main)Идентификатор кодека : 2000Продолжительность : 17 м.Вид битрейта : ПостоянныйБитрейт : 192 Кбит/секКанал(ы) : 1 каналРасположение каналов : Front: CЧастота : 48,0 КГцБитовая глубина : 16 битМетод сжатия : С потерямиРазмер потока : 23,8 Мбайт (8%)Выравнивание : Разделение по промежуткамПродолжительность промежутка : 40 мс. (1,00 видеокадр)Время предзагрузки промежутка : 500 ms

Скриншоты

Other forum [Profile] [PM]
Similar theme
Forum Topic Author Torrent Replies Last Post
./templates/default/images/folder_dl.gif Фильмы 2001-2010 Невероятная жизнь Уолтера Митти / The Secret Life of Walter Mitty (Бен Стиллер / Ben Stiller, 2013, Приключения, мелодрама, драма, комедия, фэнтези) WEB-DL [H.264/1080p-LQ] Omen
1 | 0

0 | 936

36

2014-03-26 22:37
Omen Latest
./templates/default/images/folder_dl.gif Фильмы до 2000 года Не бойся, я с тобой! (Юлий Гусман) [1981, Комедия, Приключения, DVDRip] [H.264] Omen
1 | 0

0 | 2204

20

2014-09-24 12:59
Omen Latest
./templates/default/images/folder_dl.gif Историческая литература Андрей Болотов | Жизнь и приключения Андрея Болотова, описанныя самим им для своих потомков. Том 1-3 (2013) [PDF] Omen
1 | 0

0 | 2294

6

2015-01-01 15:06
Omen Latest
./templates/default/images/folder_dl.gif Обучающее видео Учебный центр 1C | Использование прикладного решения 1С Розница 8.2 Редакция 2 (2015) PCRec Varius
1 | 0

0 | 2526

44

2015-07-16 05:16
Varius Latest
./templates/default/images/folder_dl.gif Зарубежное кино Изгой-один: Звёздные войны. Истории / Rogue One: A Star Wars Story (Гарет Эдвардс) [2016 г., фантастика, боевик, приключения, BDRip 1080p] DUB | Чистый звук Theseus
1 | 0

0 | 7783

8

2017-03-22 11:05
Theseus Latest
./templates/default/images/folder_dl.gif Зарубежные сериалы Игра престолов / Game of Thrones / Сезон: 8 / Серии: 1-6 из 6 (Алан Тейлор / Alan Taylor) [2019, фэнтези, боевик, драма, мелодрама, приключения, WEB-DL 1080p] MVO (Amedia / Новамедиа) + Original + Sub (Rus, Eng) ¶ }{@R0N
1 | 0

0 | 1889

0

2019-05-20 12:02
}{@R0N Latest
./templates/default/images/folder_dl.gif Фильмы 2011-2020 К звёздам / Ad Astra (Джеймс Грэй) [2019, фантастика, триллер, драма, детектив, приключения, HDRip-AVC] [DUB] [iTunes] Орлов Владимир
1 | 0

0 | 517

2

2019-12-07 08:01
Орлов Владимир Latest
./templates/default/images/folder_dl.gif Фильмы 2011-2020 Doom: Аннигиляция / Doom: Annihilation (Тони Гиглио) [2019, ужасы, фантастика, боевик, триллер, приключения, BDRip] L mayor
1 | 0

0 | 517

1

2019-12-09 19:04
mayor Latest
./templates/default/images/folder_dl.gif Фильмы 2011-2020 Терминатор: Тёмные судьбы / Terminator: Dark Fate (Тим Миллер) [2019, Фантастика, боевик, приключения, BDRip-AVC] [DUB] [iTunes] Орлов Владимир
1 | 0

0 | 665

1

2020-01-31 08:50
Орлов Владимир Latest
./templates/default/images/folder_dl.gif Фильмы 2011-2020 Фиксики против кработов (Василий Бедошвили, Олег Ужинов, Иван Пшонкин) [2019 г., приключения, музыка, мультфильм, WEB-DLRip] kilmister777
2 | 0

0 | 686

3

2020-02-05 13:57
kilmister777 Latest
Display posts from previous:    
Reply to topic

The time now is: Today 19:31

All times are GMT + 3 Hours



You cannot post new topics in this forum
You cannot reply to topics in this forum
You cannot edit your posts in this forum
You cannot delete your posts in this forum
You cannot vote in polls in this forum
You cannot attach files in this forum
You cannot download files in this forum