Today is a free download without charge Download

Планета 888 (Владимир Маилян) [1985, Рисованный мультфильм, VHSRip] Арменфильм

Reply to topic
 
Author
Message

Omen ®

Longevity: 7 years 11 months

Posts: 181087

Торрент-статистика

Post 26-Dec-2012 07:40

[Quote]

Планета 888
Страна: СССР
Жанр: Рисованный мультфильм
Продолжительность: 00:09:19
Год выпуска: 1985
Русские субтитры: нет
Режиссёр: Владимир Маилян
Описание: Два космонавта-землянина возрождают жизнь на планете, погибшей в результате ядерной войны. Однако новая цивилизация вновь приводит к новой войне…
Доп. информация: «Арменфильм»
Оператор: А.Кюрдиан
Сценарист: Э.Паязат
художник-постановщик: С.Айвазян
Качество: VHSRip
Формат: AVI
Видео: 576x352 (1.64:1), 25 fps, XviD build 50 ~1974 kbps avg, 0.39 bit/pixel
Аудио: 44.100 kHz, MPEG Layer 3, 2 ch, ~128.00 kbps avg
Субтитры: нет

MI

Формат : AVI
Формат/Информация : Audio Video Interleave
Размер файла : 141 Мбайт
Продолжительность : 9 м. 19 с.
Общий поток : 2113 Кбит/сек
Программа кодирования : VirtualDubModRus 1.5.10.2 (build 2542/release)
Библиотека кодирования : VirtualDubMod build 2542/release
Видео
Идентификатор : 0
Формат : MPEG-4 Visual
Профиль формата : [email protected]
Параметр BVOP формата : Нет
Параметр QPel формата : Нет
Параметр GMC формата : Без точки перехода
Параметр матрицы формата : Default (H.263)
Идентификатор кодека : XVID
Идентификатор кодека/Подсказка : XviD
Продолжительность : 9 м. 19 с.
Битрейт : 1975 Кбит/сек
Ширина : 576 пикс.
Высота : 352 пикс.
Соотношение сторон : 1,636
Частота кадров : 25,000 кадр/сек
Цветовое пространство : YUV
Подвыборка цветности : 4:2:0
Битовая глубина : 8 бит
Тип развёртки : Прогрессивная
Метод сжатия : С потерями
Бит/(Пиксели*Кадры) : 0.390
Размер потока : 132 Мбайт (93%)
Библиотека кодирования : XviD 1.2.1 (UTC 2008-12-04)
Аудио
Идентификатор : 1
Формат : MPEG Audio
Версия формата : Version 1
Профиль формата : Layer 3
Идентификатор кодека : 55
Идентификатор кодека/Подсказка : MP3
Продолжительность : 9 м. 19 с.
Вид битрейта : Постоянный
Битрейт : 128 Кбит/сек
Канал(ы) : 2 канала(ов)
Частота : 44,1 КГц
Метод сжатия : С потерями
Задержка видео : 26 мс.
Размер потока : 8,53 Мбайт (6%)
Выравнивание : Разделение по промежуткам
Продолжительность промежутка : 40 мс. (1,00 видеокадр)
Время предзагрузки промежутка : 500 ms
Библиотека кодирования : LAME3.93

Скриншоты

Other forum [Profile] [PM]
Display posts from previous:    
Reply to topic

The time now is: Today 14:07

All times are GMT + 3 Hours



You cannot post new topics in this forum
You cannot reply to topics in this forum
You cannot edit your posts in this forum
You cannot delete your posts in this forum
You cannot vote in polls in this forum
You cannot attach files in this forum
You cannot download files in this forum