Today is a free download without charge Download

Мистер Твистер (Анатолий Каранович) [1963, Рисованный,перекладки, DVDRip]

Reply to topic
 
Author
Message

Omen ®

Longevity: 7 years 11 months

Posts: 181087

Торрент-статистика

Post 26-Dec-2012 07:40

[Quote]

Мистер Твистер
Страна: CCCР
Жанр: Рисованный ,перекладки
Продолжительность: 00:15:33
Год выпуска: 1963
Русские субтитры: нет
Режиссёр: Анатолий Каранович
Описание: В основе мультфильма - популярное детское стихотворение Самуила Маршака, написанное в 1933 году.
Миллионер Мистер Твистер вместе с семейством отправляется в круиз из Нью-Йорка в Ленинград. По прибытии выясняется, что забронированный отель не относится к категории «только для белых». Твистер отменяет броню и отправляется на поиски другой гостиницы. Желая проучить расиста-капиталиста, портье обзванивает своих коллег и просит их говорить, что «мест нет»…
Доп. информация: «Союзмультфильм
Сценарист: Самуил Маршак
Художник-постановщик: Евгений Шукаев
Оператор: Михаил Каменецкий
Композитор: Михаил Зив
Звукооператор: Борис Фильчиков
Художник: Валентина Василенко
Монтажер: Лидия Кякшт
Аниматоры: Ю.Клепацкий, Ю.Норштейн, М.Портная, Г.Сокольский
Куклы и декорации: Р.Гуров, О.Масаинов, В.Петров, В.Алисов, Ф. Олейников, С.Этлис, П.Лесин
Качество: DVDRip
Формат: AVI
Видео: 704x528 (1.33:1), 25 fps, XviD build 65 ~2099 kbps avg, 0.23 bit/pixel
Аудио: 48 kHz, AC3 Dolby Digital, 1/0 (C) ch, ~192.00 kbps avg
Субтитры: нет

Интересные факты

Известно, что при каждом новом переиздании Самуил Маршак вносил коррективы и изменения в текст. Так, со временем в отеле "появляется" лифт, консьерж не строит козни против «скандального иностранца» (эта правка, по словам Маршака, была сделана по просьбе «Интуриста», боявшегося растерять западную клиентуру). А в мультипликационной версии исчезает главная мотивация приезда, озвученная дочкой миллионера Сюзи: "Я буду питаться зернистой икрой, живую ловить осетрину, кататься на тройке над Волгой-рекой и бегать в колхоз по малину!" - видимо, чтобы не раздражать советского зрителя.
Кстати, эта поэма спасла жизнь самому Маршаку, о чем рассказала его правнучка. Когда Сталину принесли в очередной раз расстрельный список, он вычеркнул фамилию Маршак, вспомнив "Мистер-Твистер" и заметив одобрительно: "Хороший советский поэт".

Подробные технические данные

Формат : AVIФормат/Информация : Audio Video InterleaveРазмер файла : 256 МбайтПродолжительность : 15 м.Общий поток : 2301 Кбит/секПрограмма кодирования : VirtualDubModRus 1.5.10.2 (build 2542/release)Правообладатель : Rutracker.orgПримечание : DVDRip by dvdss
ВидеоИдентификатор : 0Формат : MPEG-4 VisualПрофиль формата : Advanced [email protected]Параметр BVOP формата : 2Параметр QPel формата : НетПараметр GMC формата : Без точки переходаПараметр матрицы формата : ВыборочнаяИдентификатор кодека : XVIDИдентификатор кодека/Подсказка : XviDПродолжительность : 15 м.Битрейт : 2099 Кбит/секШирина : 704 пикс.Высота : 528 пикс.Соотношение сторон : 4:3Частота кадров : 25,000 кадр/секЦветовое пространство : YUVПодвыборка цветности : 4:2:0Битовая глубина : 8 битТип развёртки : ПрогрессивнаяМетод сжатия : С потерямиБит/(Пиксели*Кадры) : 0.226Размер потока : 234 Мбайт (91%)Библиотека кодирования : XviD 65
АудиоИдентификатор : 1Формат : AC-3Формат/Информация : Audio Coding 3Расширение режима : CM (complete main)Идентификатор кодека : 2000Продолжительность : 15 м.Вид битрейта : ПостоянныйБитрейт : 192 Кбит/секКанал(ы) : 1 каналРасположение каналов : Front: CЧастота : 48,0 КГцБитовая глубина : 16 битМетод сжатия : С потерямиРазмер потока : 21,4 Мбайт (8%)Выравнивание : Разделение по промежуткамПродолжительность промежутка : 40 мс. (1,00 видеокадр)Время предзагрузки промежутка : 500 ms

Скриншоты

Other forum [Profile] [PM]
Display posts from previous:    
Reply to topic

The time now is: Today 02:49

All times are GMT + 3 Hours



You cannot post new topics in this forum
You cannot reply to topics in this forum
You cannot edit your posts in this forum
You cannot delete your posts in this forum
You cannot vote in polls in this forum
You cannot attach files in this forum
You cannot download files in this forum