Today is a free download without charge Download

Как медвежата китов кормили (Роберт Саакянц) [1974, Рисованный мультфильм, VHSRip] Арменфильм

Reply to topic
 
Author
Message

Omen ®

Longevity: 7 years 11 months

Posts: 181087

Торрент-статистика

Post 26-Dec-2012 07:40

[Quote]

Как медвежата китов кормили
Страна: СССР
Жанр: Рисованный мультфильм
Продолжительность: 00:09:42
Год выпуска: 1974
Русские субтитры: нет
Режиссёр: Роберт Саакянц
Роли озвучивали: Л.Давтян,Р.Котанджян,А.Абегян
Описание:
Решили два медвежонка покормить кита, но вот беда- они его никогда не видели. Этим решила воспользоваться морская черепаха - выдав себя за кита…
Доп. информация:
"Арменфильм"
Оператор:А.Кюрдиан
Художник:Л.Хачатрян
Сценарий:Р.Саакянц,Л.Саакянц
Композитор:Ю.Арутюнян
Редчайший мультфильм, одна из первых работ – мастера мультипликации Роберта Саакянца.
Релиз группы:
Качество: VHSRip
Формат: AVI
Видео: 640x480 (1.33:1), 25 fps, XviD build 65 ~2101 kbps avg, 0.27 bit/pixel
Аудио: 48 kHz, AC3 Dolby Digital, 1/0 (C) ch, ~448.00 kbps avg
Субтитры: нет

Подробные технические данные

Формат : AVIФормат/Информация : Audio Video InterleaveРазмер файла : 178 МбайтПродолжительность : 9 м. 42 с.Общий поток : 2559 Кбит/секПрограмма кодирования : VirtualDubModRus 1.5.10.2 (build 2542/release)Правообладатель : Rutracker.orgПримечание : VHSRip by dvdss
ВидеоИдентификатор : 0Формат : MPEG-4 VisualПрофиль формата : Advanced [email protected]Параметр BVOP формата : 2Параметр QPel формата : ДаПараметр GMC формата : Без точки переходаПараметр матрицы формата : ВыборочнаяИдентификатор кодека : XVIDИдентификатор кодека/Подсказка : XviDПродолжительность : 9 м. 42 с.Битрейт : 2101 Кбит/секШирина : 640 пикс.Высота : 480 пикс.Соотношение сторон : 4:3Частота кадров : 25,000 кадр/секЦветовое пространство : YUVПодвыборка цветности : 4:2:0Битовая глубина : 8 битТип развёртки : ПрогрессивнаяМетод сжатия : С потерямиБит/(Пиксели*Кадры) : 0.274Размер потока : 146 Мбайт (82%)Библиотека кодирования : XviD 65
АудиоИдентификатор : 1Формат : AC-3Формат/Информация : Audio Coding 3Расширение режима : CM (complete main)Идентификатор кодека : 2000Продолжительность : 9 м. 42 с.Вид битрейта : ПостоянныйБитрейт : 448 Кбит/секКанал(ы) : 1 каналРасположение каналов : Front: CЧастота : 48,0 КГцБитовая глубина : 16 битМетод сжатия : С потерямиРазмер потока : 31,1 Мбайт (18%)Выравнивание : Соединение по промежуткамПродолжительность промежутка : 40 мс. (1,00 видеокадр)Время предзагрузки промежутка : 512 ms

Скриншоты

Other forum [Profile] [PM]
Display posts from previous:    
Reply to topic

The time now is: Today 00:27

All times are GMT + 3 Hours



You cannot post new topics in this forum
You cannot reply to topics in this forum
You cannot edit your posts in this forum
You cannot delete your posts in this forum
You cannot vote in polls in this forum
You cannot attach files in this forum
You cannot download files in this forum