Today is a free download without charge Download

Отчаянный кот Васька / Відчайдушний кіт Васька (Александр Викен / Олександр Вікен) [1985, Рисованный мультфильм, DVDRip]

Reply to topic
 
Author
Message

Omen ®

Longevity: 7 years 11 months

Posts: 181087

Торрент-статистика

Post 26-Dec-2012 07:40

[Quote]

Отчаянный кот Васька / Відчайдушний кіт Васька
Страна: СССР
Жанр: Рисованный мультфильм
Продолжительность: 00:09:59
Год выпуска: 1985
Перевод: Профессиональный (дублированный)
Русские субтитры: нет
Режиссёр: Александр Викен / Олександр Вікен
Роли озвучивали: А. Буряковский, Е. Клименко
Описание: Рыжий котенок Васька увидел открытый люк на крыше высотного дома и не мог устоять перед своим любопытством - а что там. Но люк закрылся и Васька остался на крыше. Сообразительный котенок нашел способ как выйти из данной сиутации и вернуться домой…
Доп. информация:
Студия: «Киевнаучфильм»
Художник-постановщик:Н.Чурилов
Композитор:В.Быстряков
Оператор:А.Гаврилов
Монтаж:С.Васильева
Релиз группы:
За исходную украинскую дорожку спасибо ItarTass.
Работа со звуком - xfiles.
Рип - dvdss.
Качество: DVDRip
Формат: AVI
Видео: 704x528 (1.33:1), 25 fps, XviD build 65 ~2149 kbps avg, 0.23 bit/pixel
Аудио#1: 48 kHz, AC3 Dolby Digital, 1/0 (C) ch, ~96.00 kbps avg RUS
Аудио#2: 48 kHz, AC3 Dolby Digital, 1/0 (C) ch, ~96.00 kbps avg UKR
Субтитры: нет

Подробные технические данные

Формат : AVIФормат/Информация : Audio Video InterleaveРазмер файла : 168 МбайтПродолжительность : 9 м. 59 с.Общий поток : 2356 Кбит/секПрограмма кодирования : VirtualDubModRus 1.5.10.2 (build 2542/release)Библиотека кодирования : VirtualDubMod build 2542/releaseПравообладатель : Rutracker.orgПримечание : DVDRip by dvdss
ВидеоИдентификатор : 0Формат : MPEG-4 VisualПрофиль формата : Advanced [email protected]Параметр BVOP формата : 2Параметр QPel формата : ДаПараметр GMC формата : Без точки переходаПараметр матрицы формата : ВыборочнаяИдентификатор кодека : XVIDИдентификатор кодека/Подсказка : XviDПродолжительность : 9 м. 59 с.Битрейт : 2149 Кбит/секШирина : 704 пикс.Высота : 528 пикс.Соотношение сторон : 4:3Частота кадров : 25,000 кадр/секЦветовое пространство : YUVПодвыборка цветности : 4:2:0Битовая глубина : 8 битТип развёртки : ПрогрессивнаяМетод сжатия : С потерямиБит/(Пиксели*Кадры) : 0.231Размер потока : 154 Мбайт (91%)Библиотека кодирования : XviD 65
Аудио #1Идентификатор : 1Формат : AC-3Формат/Информация : Audio Coding 3Расширение режима : CM (complete main)Идентификатор кодека : 2000Продолжительность : 9 м. 59 с.Вид битрейта : ПостоянныйБитрейт : 96,0 Кбит/секКанал(ы) : 1 каналРасположение каналов : Front: CЧастота : 48,0 КГцБитовая глубина : 16 битМетод сжатия : С потерямиРазмер потока : 6,86 Мбайт (4%)Выравнивание : Разделение по промежуткамПродолжительность промежутка : 40 мс. (1,00 видеокадр)Время предзагрузки промежутка : 500 ms
Аудио #2Идентификатор : 2Формат : AC-3Формат/Информация : Audio Coding 3Расширение режима : CM (complete main)Идентификатор кодека : 2000Продолжительность : 9 м. 59 с.Вид битрейта : ПостоянныйБитрейт : 96,0 Кбит/секКанал(ы) : 1 каналРасположение каналов : Front: CЧастота : 48,0 КГцБитовая глубина : 16 битМетод сжатия : С потерямиРазмер потока : 6,86 Мбайт (4%)Выравнивание : Разделение по промежуткамПродолжительность промежутка : 40 мс. (1,00 видеокадр)Время предзагрузки промежутка : 500 ms

Скриншоты

Просьба скачать торрент файл заново (исправлен баг от издателя с псевдостерео + добавлена Украинская оригинальная дорожка)
Other forum [Profile] [PM]
Display posts from previous:    
Reply to topic

The time now is: Today 19:24

All times are GMT + 3 Hours



You cannot post new topics in this forum
You cannot reply to topics in this forum
You cannot edit your posts in this forum
You cannot delete your posts in this forum
You cannot vote in polls in this forum
You cannot attach files in this forum
You cannot download files in this forum