Today is a free download without charge Download

Алеша Попович и Тугарин Змей (Константин Бронзит) [2004, мультфильм, мюзикл, фэнтези, мелодрама, комедия, DVD5]

Reply to topic
 
Author
Message

Omen ®

Longevity: 7 years 11 months

Posts: 181087

Торрент-статистика

Post 24-Dec-2012 23:46

[Quote]

Алеша Попович и Тугарин Змей- -Страна: Россия
Жанр: мультфильм, мюзикл, фэнтези, мелодрама, комедия
Продолжительность: 01:15:31
Год выпуска: 2004
Перевод: Оригинал (Россия)
Русские субтитры: нет-Режиссёр:
Константин Бронзит
Сценарий:
Александр Боярский, Константин Бронзит, Илья Максимов, ...
Роли озвучивали:
Олег Куликович, Лия Медведева, Дмитрий Высоцкий, Анатолий Петров, Наталья Данилова, Сергей Маковецкий, Иван Краско, Татьяна Иванова, Михаил Черняк, Константин Бронзит ...--Описание:
В древнем русском городе Ростове родился в поповской семье сын. Назвали его родители Алешей. А когда он вырос и стал богатырем, то совершил такие подвиги, что стал героем русских былин Алешей Поповичем. Только подвиги его начались с конфуза…
Подступила к Ростову тугарская вражеская орда во главе с Тугарином Змеем и потребовала, чтобы жители города выплатили дань. Поповский сын предложил план действий. Народ этот план одобрил и собрал гору золота. Алеша же умудрился собственный план «благополучно» провалить, да с каким треском!
И золото упустил, и полгорода разрушил. После чего поклялся — Тугарина Змея изловить и золото вернуть. Отправился Алеша Попович в путь вместе с дедом Тихоном, который мальчика вырастил и воспитал, а чуть позже компанию им составили говорящий конь Юлий, купленный у цыган, почти 16-летняя красавица Любава, ее бабка и их ослик Моисей…--Доп. материалы:
Анимационные ролики К. Бронзита (1. Божество, 2. Крепкий орешек)- , , -Копия Российского лицензионного диска (СОЮЗ Видео)-Качество: DVD5, Формат: DVD-video
Видео: MPEG Video, 6991 Кбит/сек, 720х576 пикселей, 16:9, PAL, Бит/(Пиксели*Кадры) - 0.674
Аудио: Audio Coding 3, 448 Кбит/сек, 6 каналов, 48,0 КГц
Субтитры: Отсутствуют
-

DVDInfo

Title:Size: 4.35 Gb ( 4 560 362 KBytes ) - DVD-5Enabled regions: 1, 2, 3, 4, 5, 6
VTS_01 : Play Length: 01:15:31 Video: PAL 16:9 (720x576) VBR, Auto Letterboxed Audio: Russian (Dolby AC3, 6 ch)
VTS_02 : Play Length: 00:01:24+00:04:17 Video: PAL 4:3 (720x576) VBR Audio: Russian (Dolby AC3, 2 ch)
Menu Video: PAL 4:3 (720x576) VBRMenu Audio: Not specified (Dolby AC3, 2 ch)Menu Subtitles: Not specifiedMenu English Language Unit : Root Menu Subpicture Menu Angle menu

MediaInfo

Формат : MPEG-PSРазмер файла : 1024 МбайтПродолжительность : 18 м.Режим общего битрейта : ПеременныйОбщий поток : 7590 Кбит/сек
ВидеоИдентификатор : 224 (0xE0)Формат : MPEG VideoВерсия формата : Version 2Профиль формата : [email protected]Параметр BVOP формата : ДаПараметр матрицы формата : ВыборочнаяПродолжительность : 18 м.Вид битрейта : ПеременныйБитрейт : 6991 Кбит/секМаксимальный битрейт : 9800 Кбит/секШирина : 720 пикселейВысота : 576 пикселейСоотношение сторон : 16:9Частота кадров : 25,000 кадров/секСтандарт вещания : PALЦветовое пространство : YUVСубдискретизация насыщенности : 4:2:0Битовая глубина : 8 битТип развёртки : ЧересстрочнаяПорядок развёртки : Верхнее поле первоеМетод сжатия : С потерямиБит/(Пиксели*Кадры) : 0.674Размер потока : 943 Мбайт (92%)
АудиоИдентификатор : 189 (0xBD)-128 (0x80)Формат : AC-3Формат/Информация : Audio Coding 3Расширение режима : CM (complete main)Режим смешивания : DVD-VideoПродолжительность : 18 м.Вид битрейта : ПостоянныйБитрейт : 448 Кбит/секКаналы : 6 каналовРасположение каналов : Front: L C R, Side: L R, LFEЧастота : 48,0 КГцБитовая глубина : 16 битМетод сжатия : С потерямиЗадержка видео : -568 мс.Размер потока : 60,4 Мбайт (6%)
Меню

-

Скриншоты меню

Скриншоты мультфильма

Скриншоты доп. материалов)

Other forum [Profile] [PM]
Display posts from previous:    
Reply to topic

The time now is: Today 23:57

All times are GMT + 3 Hours



You cannot post new topics in this forum
You cannot reply to topics in this forum
You cannot edit your posts in this forum
You cannot delete your posts in this forum
You cannot vote in polls in this forum
You cannot attach files in this forum
You cannot download files in this forum