Today is a free download without charge Download

Beth Hart - Bang Bang Boom Boom [2012, rock, blues, soul, HD ProRes 1080p]

Reply to topic
 
Author
Message

Omen ®

Longevity: 8 years 3 months

Posts: 181087

Торрент-статистика

Post 24-Dec-2012 18:12

[Quote]

Beth Hart - Bang Bang Boom Boom- -Оригинальное название: Beth Hart - Bang Bang Boom Boom
Жанр: rock, blues, soul
Продолжительность: 03:36
Год выпуска: 2012
Источник: Mascot Label Group | Provogue
-Водеоклип в Pro-качестве на песню Bang Bang Boom Boom с одноименного альбома Beth Hart, вышедшего 8 октября 2012.
-Качество: HD ProRes 1080p
Контейнер: MOV
Видео кодек: apch
Аудио кодек: PCM
Видео: ProRes 146 Mbps 1920*800p / 23.976 fps / 2.40:1
Аудио: English PCM 2.0 / 48.0 KHz / 1 536 Kbps / 16 bits
-

MediaInfo

GeneralComplete name : H:\HDTV_music\BethHart_Bang_Bang_Video.movFormat : MPEG-4Format profile : QuickTimeCodec ID : qtFile size : 3.71 GiBDuration : 3mn 36sOverall bit rate mode : VariableOverall bit rate : 147 MbpsEncoded date : UTC 2012-09-14 09:15:20Tagged date : UTC 2012-09-14 09:23:31Writing library : Apple QuickTime 7.7.1Media/UUID : 808C9C14-D804-4F28-894B-1CF4F235B443com.apple.quicktime.player.movie.audio.m : (Binary)
VideoID : 1Format : ProResFormat version : Version 0Format profile : HighCodec ID : apchDuration : 3mn 36sSource duration : 3mn 36sBit rate mode : VariableBit rate : 146 MbpsWidth : 1 920 pixelsHeight : 800 pixelsDisplay aspect ratio : 2.40:1Frame rate mode : ConstantFrame rate : 23.976 fpsColor space : YUVChroma subsampling : 4:2:2Scan type : ProgressiveBits/(Pixel*Frame) : 3.953Stream size : 3.67 GiB (99%)Source stream size : 3.67 GiB (99%)Writing library : AppleLanguage : EnglishEncoded date : UTC 2012-09-11 21:36:04Tagged date : UTC 2012-09-14 09:23:31Color primaries : BT.709Transfer characteristics : BT.709Matrix coefficients : BT.709
AudioID : 3Format : PCMFormat settings, Endianness : BigFormat settings, Sign : SignedCodec ID : twosDuration : 3mn 36sBit rate mode : ConstantBit rate : 1 536 KbpsChannel(s) : 2 channelsChannel positions : Front: L RSampling rate : 48.0 KHzBit depth : 16 bitsStream size : 39.7 MiB (1%)Language : EnglishEncoded date : UTC 2012-09-11 21:39:20Tagged date : UTC 2012-09-14 09:23:31
MenuID : 2Duration : 3mn 36sLanguage : EnglishEncoded date : UTC 2012-09-11 21:39:20Tagged date : UTC 2012-09-14 09:23:31
-
Other forum [Profile] [PM]
Display posts from previous:    
Reply to topic

The time now is: Today 09:49

All times are GMT + 3 Hours



You cannot post new topics in this forum
You cannot reply to topics in this forum
You cannot edit your posts in this forum
You cannot delete your posts in this forum
You cannot vote in polls in this forum
You cannot attach files in this forum
You cannot download files in this forum