Today is a free download without charge Download

Alanis Morissette: Guardian Angel Tour [2012, Alternative Rock, HDTV 1080i]

Reply to topic
 
Author
Message

Omen ®

Longevity: 8 years 4 months

Posts: 181087

Торрент-статистика

Post 24-Dec-2012 16:04

[Quote]

Alanis Morissette: Guardian Angel Tour
Жанр: Alternative Rock
Продолжительность: 01:49:13
Год выпуска: 2012
Описание: Ала́нис Нади́н Мо́риссетт — канадская певица, композитор, актриса и продюсер, которая стала всемирно популярной в 1995 году, записав один из самых продаваемых альбомов за всё время Jagged Little Pill. На счету Мориссетт 7 наград «Грэмми». В общей сложности по всему миру продано более 55 млн экземпляров её альбомов
Треклист:
1. I Remain (Segue 1)
2. Woman Down
3. All I Really Want
4. You Learn
5.Guardian
6. Mary Jane
7. Edge of Evolution
8. Right Through You
9. So Pure
10. Ironic
11. Havoc
12. Head Over Feet
13. Lens
14. I Remain (Segue 2)
15. Uninvited
16. You Oughta Know
17. Numb
18. Acoustic
19. Hand In My Pocket (Acoustic)
20. Everything (Acoustic)
21. Your House (Acoustic)
Encore:
22. Thank U
Релиз от спасибо SOLERS
Качество: HDTV 1080i
Контейнер: TS
Видео кодек: MPEG2
Аудио кодек: DTS
Видео: MPEG2, 1920x1080i, 35.6 Mbps, 29.970 fps
Аудио#1: DTS-HD MA, 1 561 Kbps / 1 510 Kbps, 48 KHz, 6 ch
Аудио#2: MP2, 384 Kbps, 48 KHz, 2 Ch

MediaInfo

GeneralID : 1 (0x1)Complete name : L:\Alanis Morissette - Guardian Angel Tour 2012 1080i HDTV 35 Mbps DTS-HD MA 5.1 MPEG2-TrollHD.tsFormat : MPEG-TSFile size : 30.2 GiBDuration : 1h 49mnOverall bit rate mode : VariableOverall bit rate : 39.5 MbpsMaximum Overall bit rate : 35.5 Mbps
VideoID : 4113 (0x1011)Menu ID : 1 (0x1)Format : MPEG VideoFormat version : Version 2Format profile : [email protected] settings, BVOP : YesFormat settings, Matrix : CustomCodec ID : 2Duration : 1h 49mnBit rate mode : VariableBit rate : 35.6 MbpsMaximum bit rate : 65.0 MbpsWidth : 1 920 pixelsHeight : 1 080 pixelsDisplay aspect ratio : 16:9Frame rate : 29.970 fpsColor space : YUVChroma subsampling : 4:2:0Bit depth : 8 bitsScan type : InterlacedScan order : Top Field FirstCompression mode : LossyBits/(Pixel*Frame) : 0.573Stream size : 27.2 GiB (90%)
Audio #1ID : 4352 (0x1100)Menu ID : 1 (0x1)Format : DTSFormat/Info : Digital Theater SystemsFormat profile : MA / CoreMuxing mode : Stream extensionCodec ID : 134Duration : 1h 49mnBit rate mode : VariableBit rate : 1 561 Kbps / 1 510 KbpsChannel(s) : 6 channelsChannel positions : Front: L C R, Side: L R, LFESampling rate : 48.0 KHzBit depth : 24 bitsCompression mode : Lossless / LossyLanguage : English
Audio #2ID : 4353 (0x1101)Menu ID : 1 (0x1)Format : MPEG AudioFormat version : Version 1Format profile : Layer 2Codec ID : 4Duration : 1h 49mnBit rate mode : ConstantBit rate : 384 KbpsChannel(s) : 2 channelsSampling rate : 48.0 KHzCompression mode : LossyDelay relative to video : 15msStream size : 300 MiB (1%)

Скриншоты


Other forum [Profile] [PM]
Display posts from previous:    
Reply to topic

The time now is: Today 19:32

All times are GMT + 3 Hours



You cannot post new topics in this forum
You cannot reply to topics in this forum
You cannot edit your posts in this forum
You cannot delete your posts in this forum
You cannot vote in polls in this forum
You cannot attach files in this forum
You cannot download files in this forum