Today is a free download without charge Download

Римские приключения / To Rome with Love (Вуди Аллен / Woody Allen) [ 2012 , США, Италия, Испания , мелодрама, комедия , BDRip1080р ]

Reply to topic
 
Author
Message

Delia ®

Gender:

Longevity: 10 years

Posts: 1821

Торрент-статистика

Post 24-Dec-2012 11:21

[Quote]

-Римские приключенияTo Rome with Love-- Год выпуска: 2012
Страна: США, Италия, Испания
Жанр: мелодрама, комедия
Продолжительность: 01:51:38
Перевод: Профессиональный (полное дублирование)
Режиссер: Вуди Аллен / Woody Allen
Сценарий: Вуди Аллен / Woody Allen
Продюсер: Фарук Алатан / Faruk Alatan, Летти Аронсон / Letty Aronson, Джиампаоло Летто / Giampaolo Letta, Стивен Тененбаум / Stephen Tenenbaum, Франческо Маррас / Francesco Marras
Оператор: Дариус Хонджи / Darius Khondji- В ролях: Вуди Аллен (Jerry), Алек Болдуин (John), Роберто Бениньи (Leopoldo), Пенелопа Крус (Anna), Джуди Дэвис (Phyllis), Джесси Айзенберг (Jack), Грета Гервиг (Sally), Эллен Пейдж (Monica), Флавио Паренти (Michelangelo), Элисон Пилл (Hayley), Алессандро Тибери (Antonio), Алессандра Мастронарди (Milly)-Описание: Комедия, действие которой происходит в одном из самых прекрасных городов мира. Мы встретим известного американского архитектора, переживающего вторую юность, простого обывателя, неожиданно проснувшегося знаменитым, молодоженов из провинции, каждого из которых ждут романтические открытия, и американского оперного постановщика, задумавшего вывести на сцену поющего работника похоронного бюро...-- Сборы в США: $16 685 867
Сборы в России: $2 874 459
Сборы в мире: $73 244 881
Мировая премьера: 20 апреля 2012
Релиз на DVD: 6 декабря 2012, «CD Land»
Релиз на Blu-ray: 20 декабря 2012, «CD Land»-
MPAA: - Лицам до 17 лет обязательно присутствие взрослого--
Качество: BDRip
Контейнер: MKV
Видео: AVC, 1920x1040 (16:9), 9324 kbps, 23,976 fps, 0,195 bpp
Аудио №1: русский /; AC3 /; 5.1 /; 48 kHz /; 448 kbps /; 16 bit
Аудио №2: английский /; AC3 /; 5.1 /; 48 kHz /; 384 kbps /; 16 bit
Субтитры: английские
Навигация по главам: есть--

Media Info

General
Unique ID : 231564808705542484861037336022480774084 (0xAE35C289CDF74EE38FE6B4E4CD1EE3C4)
Complete name : E:\Torrent\To Rome with Love (2012) BDRip-F.HD.mkv
Format : Matroska
Format version : Version 4 / Version 2
File size : 7.92 GiB
Duration : 1h 51mn
Overall bit rate : 10.2 Mbps
Encoded date : UTC 2010-02-22 21:41:31
Writing application : mkvmerge v5.9.0 ('On The Loose') built on Dec 9 2012 15:37:01
Writing library : libebml v1.3.0 + libmatroska v1.4.0
Video
ID : 1
Format : AVC
Format/Info : Advanced Video Codec
Format profile : [email protected]
Format settings, CABAC : Yes
Format settings, ReFrames : 4 frames
Codec ID : V_MPEG4/ISO/AVC
Duration : 1h 51mn
Bit rate : 9 324 Kbps
Width : 1 920 pixels
Height : 1 040 pixels
Display aspect ratio : 16:9
Frame rate : 23.976 fps
Color space : YUV
Chroma subsampling : 4:2:0
Bit depth : 8 bits
Scan type : Progressive
Bits/(Pixel*Frame) : 0.195
Stream size : 7.12 GiB (90%)
Writing library : x264 core 129 r2230+696+36 4446aa2 tMod+MixAQ [[email protected]:2:0 X86_64]
Encoding settings : cabac=1 / ref=4 / deblock=1:-3:-3 / analyse=0x3:0x113 / me=umh / subme=10 / psy=1 / fade_compensate=0.00 / psy_rd=0.80:0.06 / mixed_ref=1 / me_range=32 / chroma_me=1 / trellis=2 / 8x8dct=1 / cqm=0 / deadzone=21,11 / fast_pskip=0 / chroma_qp_offset=-3 / threads=6 / lookahead_threads=1 / sliced_threads=0 / nr=0 / decimate=0 / interlaced=0 / bluray_compat=0 / constrained_intra=0 / fgo=0 / bframes=9 / b_pyramid=2 / b_adapt=2 / b_bias=0 / direct=3 / weightb=1 / open_gop=0 / weightp=2 / keyint=240 / keyint_min=23 / scenecut=40 / intra_refresh=0 / rc=2pass / mbtree=0 / bitrate=9324 / ratetol=1.0 / qcomp=0.70 / qpmin=0 / qpmax=69 / qpstep=4 / cplxblur=20.0 / qblur=0.5 / ip_ratio=1.40 / pb_ratio=1.30 / aq=3 / aq-strength=0.70 / aq-sensitivity=10.00 / aq-ifactor=1.00 / aq-pfactor=1.00 / aq-bfactor=1.00 / aq2=0
Language : English
Default : Yes
Forced : No
Color primaries : BT.709-5, BT.1361, IEC 61966-2-4, SMPTE RP177
Transfer characteristics : BT.709-5, BT.1361
Matrix coefficients : BT.709-5, BT.1361, IEC 61966-2-4 709, SMPTE RP177
Audio #1
ID : 2
Format : AC-3
Format/Info : Audio Coding 3
Mode extension : CM (complete main)
Codec ID : A_AC3
Duration : 1h 51mn
Bit rate mode : Constant
Bit rate : 448 Kbps
Channel(s) : 6 channels
Channel positions : Front: L C R, Side: L R, LFE
Sampling rate : 48.0 KHz
Bit depth : 16 bits
Compression mode : Lossy
Stream size : 358 MiB (4%)
Language : Russian
Default : Yes
Forced : No
Audio #2
ID : 3
Format : AC-3
Format/Info : Audio Coding 3
Mode extension : CM (complete main)
Codec ID : A_AC3
Duration : 1h 51mn
Bit rate mode : Constant
Bit rate : 384 Kbps
Channel(s) : 6 channels
Channel positions : Front: L C R, Side: L R, LFE
Sampling rate : 48.0 KHz
Bit depth : 16 bits
Compression mode : Lossy
Stream size : 307 MiB (4%)
Language : English
Default : No
Forced : No
Text
ID : 4
Format : UTF-8
Codec ID : S_TEXT/UTF8
Codec ID/Info : UTF-8 Plain Text
Language : English
Default : No
Forced : No
Menu
00:00:00.000 : en:00:00:00.000
00:06:27.178 : en:00:06:27.178
00:12:23.868 : en:00:12:23.868
00:17:45.314 : en:00:17:45.314
00:23:07.261 : en:00:23:07.261
00:28:49.937 : en:00:28:49.937
00:38:38.274 : en:00:38:38.274
00:49:23.544 : en:00:49:23.544
00:59:22.100 : en:00:59:22.100
01:09:03.097 : en:01:09:03.097
01:17:56.338 : en:01:17:56.338
01:21:31.345 : en:01:21:31.345
01:27:12.686 : en:01:27:12.686
01:35:49.911 : en:01:35:49.911
01:40:45.248 : en:01:40:45.248

Знаете ли Вы, что...

  • Изначально фильм назывался «The Bop Decameron», прежде чем его сменили на «Nero Fiddled». Вуди Аллен изменил его, когда понял, что немногие поймут связь со сборником новелл под названием «Декамерон».
  • Анджелина Джоли и Нуми Рапас рассматривались на роль, которую в итоге получила Пенелопа Крус.
  • Аарон Джонсон и Роберт Паттинсон пробовались на роль в фильме.
  • Первый фильм-антология Вуди Аллена, с момента выхода «Нью-Йоркских историй» (1989), где он сделал новеллу «Oedipus Wrecks» (Эдипов комплекс). Это так же первая антология за сорок лет, режиссурой которой от и до занимался только Аллен, с момента выхода «Все, что вы хотели знать о сексе, но боялись спросить» (1972).
  • Первая роль Вуди Аллена спустя 5 снятых им фильмов и 6 лет. Его предыдущая роль была в фильме «Сенсация» (2006).
  • Первое появление в крупном американском релизе Роберто Бениньи после «Пиноккио» (2002), и лишь второе после того, как он получил Оскара за «Жизнь прекрасна» (1997). И так же его первое появление в фильме, продюсером и режиссером которого являются американцы, после «Сын Розовой пантеры» (1993).


Скриншоты

     
     

_________________
Человек – это канат, натянутый между животным и сверхчеловеком, – канат над пропастью.
В человеке ценно то, что он мост, а не цель. Фридрих Ницше
Other forum [Profile] [PM]
Display posts from previous:    
Reply to topic

The time now is: Today 01:14

All times are GMT + 3 Hours



You cannot post new topics in this forum
You cannot reply to topics in this forum
You cannot edit your posts in this forum
You cannot delete your posts in this forum
You cannot vote in polls in this forum
You cannot attach files in this forum
You cannot download files in this forum