Today is a free download without charge Download

Rammstein - Videos 1995-2012 (Disc 2) [2012, Industrial, BDRip 1080p]

Reply to topic
 
Author
Message

Omen ®

Longevity: 8 years 4 months

Posts: 181087

Торрент-статистика

Post 23-Dec-2012 23:16

[Quote]

Rammstein - Videos 1995-2012 (Disc 2)-
Дата выпуска: 14.12.2012
Жанр: Industrial
Продолжительность: 54:28
Описание: With "Videos 1995 - 2012" Rammstein release their video collection, which were already released in the limited box set of "Made in Germany - Best of 1995 - 2012" but now as valuable digipak edition with 3D-flip image-cover, on which the heads of the band members can be seen. "Videos 1995 - 2012" contains next to the well-known videos additionally two brand-new clips: the video to the re-recorded version of "Mein Herz brennt" and the corresponding Making Of.
-Доп. информация: Автор: COPYRiOT
Качество: BDRip 1080p Формат: MKV
Видео: 1920x1080 (16:9), 24 fps, Advanced Video Codec [email protected] ~10,5 mbps avg, 0.211 bit/pixel
Аудио: 48 kHz, Digital Theater Systems, 2 ch, ~755.00 kbps avg
Трэклист:
01. Amerika
02. Ohne dich
03. Keine Lust
04. Benzin
05. Rosenrot
06. Mann gegen Mann
07. Pussy
08. Ich tu dir weh
09. Haifisch
10. Mein Land
11. Mein Herz brennt (Piano Version)
12. Mein Herz brennt

Обложка

Mediainfo

ОбщееУникальный идентификатор : 235998044644713314079102541780222135078 (0xB18B91F20FA2BB4AB2EBFF5471E2CB26)Полное имя : .mkvФормат : MatroskaВерсия формата : Version 2Размер файла : 4,37 ГбайтПродолжительность : 54 м.Общий поток : 11,5 Мбит/секДата кодирования : UTC 2012-12-18 20:52:09Программа кодирования : mkvmerge v5.7.0 ('The Whirlwind') built on Jul 8 2012 20:08:51Библиотека кодирования : libebml v1.2.3 + libmatroska v1.3.0
ВидеоИдентификатор : 1Формат : AVCФормат/Информация : Advanced Video CodecПрофиль формата : [email protected]Параметр CABAC формата : ДаПараметр ReFrames формата : 4 кадраИдентификатор кодека : V_MPEG4/ISO/AVCПродолжительность : 54 м.Битрейт : 10,5 Мбит/секШирина : 1920 пикселейВысота : 1080 пикселейСоотношение сторон : 16:9Частота кадров : 24,000 кадра/секЦветовое пространство : YUVСубдискретизация насыщенности : 4:2:0Битовая глубина : 8 битТип развёртки : ПрогрессивнаяБит/(Пиксели*Кадры) : 0.211Размер потока : 4,00 Гбайт (91%)Библиотека кодирования : x264 core 129 r2230 1cffe9fНастройки программы : cabac=1 / ref=4 / deblock=1:0:0 / analyse=0x3:0x133 / me=umh / subme=8 / psy=1 / psy_rd=1.00:0.00 mixed_ref=1 / me_range=16 / chroma_me=1 / trellis=1 / 8x8dct=1 / cqm=0 / deadzone=21,11 / fast_pskip=0 chroma_qp_offset=-2 / threads=12 / lookahead_threads=2 / sliced_threads=0 / nr=0 / decimate=1 interlaced=0 / bluray_compat=0 / constrained_intra=0 / bframes=3 / b_pyramid=2 / b_adapt=1 / b_bias=0 direct=1 / weightb=1 / open_gop=0 / weightp=2 / keyint=250 / keyint_min=24 / scenecut=40 / intra_refresh=0 rc_lookahead=40 / rc=2pass / mbtree=1 / bitrate=10498 / ratetol=1.0 / qcomp=0.60 / qpmin=0 / qpmax=69 qpstep=4 / cplxblur=20.0 / qblur=0.5 / ip_ratio=1.40 / aq=1:1.00Язык : EnglishDefault : ДаForced : Нет
АудиоИдентификатор : 2Формат : DTSФормат/Информация : Digital Theater SystemsИдентификатор кодека : A_DTSПродолжительность : 54 м.Вид битрейта : ПостоянныйБитрейт : 755 Кбит/секКаналы : 2 каналаРасположение каналов : Front: L RЧастота : 48,0 КГцБитовая глубина : 24 битМетод сжатия : С потерямиРазмер потока : 294 Мбайт (7%)Default : ДаForced : Нет
Меню00:00:00.000 : en:00:00:00.00000:04:19.750 : en:00:04:19.75000:10:01.583 : en:00:10:01.58300:16:02.917 : en:00:16:02.91700:19:41.667 : en:00:19:41.66700:23:44.000 : en:00:23:44.00000:27:38.750 : en:00:27:38.75000:31:40.875 : en:00:31:40.87500:35:39.625 : en:00:35:39.62500:40:12.458 : en:00:40:12.45800:44:39.583 : en:00:44:39.58300:49:22.708 : en:00:49:22.70800:53:25.708 : en:00:53:25.708

Скриншоты


Other forum [Profile] [PM]
Display posts from previous:    
Reply to topic

The time now is: Today 23:39

All times are GMT + 3 Hours



You cannot post new topics in this forum
You cannot reply to topics in this forum
You cannot edit your posts in this forum
You cannot delete your posts in this forum
You cannot vote in polls in this forum
You cannot attach files in this forum
You cannot download files in this forum