Today is a free download without charge Download

The Rolling Stones - Live at Newark Prudential Center 15.12.12 [2012, Rock, HDTVRip 720p]

Reply to topic
 
Author
Message

Omen ®

Longevity: 8 years 3 months

Posts: 181087

Торрент-статистика

Post 23-Dec-2012 21:08

[Quote]

The Rolling Stones - Live at Newark Prudential Center 15.12.12
Жанр: Rock
Продолжительность: 02:35:32
Год выпуска: 2012
Треклист:
01. Gorilla Intro (with Batala Drummers)
02. Get Off of My Cloud
03. The Last Time
04. It’s Only Rock 'N' Roll (But I Like It)
05. Paint It Black
06. Gimme Shelter (with Lady Gaga)
07. Wild Horses
08. Going Down (with John Mayer and Gary Clark Jnr)
09. Dead Flowers (By Request…)
10. Who Do You Love (with The Black Keys)
11. Doom and Gloom
12. One More Shot
13. Miss You
14. Honky Tonk Women
15. Introductions
16. Before They Make Me Run
17. Happy
18. Midnight Rambler (with Mick Taylor)
19. Start Me Up
20. Tumbling Dice (with Bruce Springsteen)
21. Brown Sugar
22. Sympathy For The Devil
23. You Can't Always Get What You Want (with the Choir of Trinity Wall Street)
24. Jumpin' Jack Flash
25. (I Can’t Get No) Satisfaction
Качество: HDTVRip 720p
Контейнер: MKV
Видео кодек: H.264
Аудио кодек: AC3
Видео: H.264 / 1280x720p / ~ 4.405 Mbps / 29.970 fps
Аудио: AC-3 / 2.0 / 48 KHz / 384 Kbps / 16-bit

Отчёт MediaInfo

GeneralUnique ID : 178696145845024235353825707772746978175 (0x866FA035EED851758D8D508480A0D37F)Complete name : The Rolling Stones - Live at Newark Prudential Center 15.12.12.mkvFormat : MatroskaFormat version : Version 2File size : 5.31 GiBDuration : 2h 35mnOverall bit rate : 4 886 KbpsEncoded date : UTC 2012-12-17 01:56:04Writing application : mkvmerge v4.0.0 ('The Stars were mine') built on Jun 6 2010 16:18:42Writing library : libebml v1.0.0 + libmatroska v1.0.0
VideoID : 1Format : AVCFormat/Info : Advanced Video CodecFormat profile : [email protected] settings, CABAC : YesFormat settings, ReFrames : 5 framesCodec ID : V_MPEG4/ISO/AVCDuration : 2h 35mnBit rate : 4 405 KbpsWidth : 1 280 pixelsHeight : 720 pixelsDisplay aspect ratio : 16:9Frame rate mode : ConstantFrame rate : 29.970 fpsColor space : YUVChroma subsampling : 4:2:0Bit depth : 8 bitsScan type : ProgressiveBits/(Pixel*Frame) : 0.159Stream size : 4.79 GiB (90%)Writing library : x264 core 129 r2230 1cffe9fEncoding settings : cabac=1 / ref=5 / deblock=1:0:0 / analyse=0x3:0x113 / me=umh / subme=8 / psy=1 / psy_rd=1.00:0.00 / mixed_ref=1 / me_range=16 / chroma_me=1 / trellis=1 / 8x8dct=1 / cqm=0 / deadzone=21,11 / fast_pskip=1 / chroma_qp_offset=-2 / threads=12 / lookahead_threads=2 / sliced_threads=0 / nr=0 / decimate=1 / interlaced=0 / bluray_compat=0 / constrained_intra=0 / bframes=3 / b_pyramid=2 / b_adapt=2 / b_bias=0 / direct=3 / weightb=1 / open_gop=0 / weightp=2 / keyint=250 / keyint_min=25 / scenecut=40 / intra_refresh=0 / rc_lookahead=50 / rc=crf / mbtree=1 / crf=22.0 / qcomp=0.60 / qpmin=0 / qpmax=69 / qpstep=4 / ip_ratio=1.40 / aq=1:1.00Language : EnglishDefault : NoForced : No
AudioID : 2Format : AC-3Format/Info : Audio Coding 3Mode extension : CM (complete main)Format settings, Endianness : BigCodec ID : A_AC3Duration : 2h 35mnBit rate mode : ConstantBit rate : 384 KbpsChannel(s) : 2 channelsChannel positions : Front: L RSampling rate : 48.0 KHzBit depth : 16 bitsCompression mode : LossyStream size : 427 MiB (8%)Default : YesForced : No
Other forum [Profile] [PM]
Display posts from previous:    
Reply to topic

The time now is: Today 09:11

All times are GMT + 3 Hours



You cannot post new topics in this forum
You cannot reply to topics in this forum
You cannot edit your posts in this forum
You cannot delete your posts in this forum
You cannot vote in polls in this forum
You cannot attach files in this forum
You cannot download files in this forum