Today is a free download without charge Download

Alanis Morissette: Guardian Angel Tour [2012, Alternative Rock, HDTVRip 720p]

Reply to topic
 
Author
Message

Omen ®

Longevity: 8 years 4 months

Posts: 181087

Торрент-статистика

Post 23-Dec-2012 16:48

[Quote]

Alanis Morissette: Guardian Angel Tour- Жанр: Alternative Rock
Продолжительность: 01:49:13
Год выпуска: 2012-Описание: Трансляция концерта Аланис Мориссетт в Филадельфии 20.10.2012 в рамках мирового тура в поддержку нового альбома 2012 года “Havoc and bright lights”.-Треклист:
1. I Remain (Segue 1)
2. Woman Down
3. All I Really Want
4. You Learn
5.Guardian
6. Mary Jane
7. Edge of Evolution
8. Right Through You
9. So Pure
10. Ironic
11. Havoc
12. Head Over Feet
13. Lens
14. I Remain (Segue 2)
15. Uninvited
16. You Oughta Know
17. Numb
18. Acoustic
19. Hand In My Pocket (Acoustic)
20. Everything (Acoustic)
21. Your House (Acoustic)
Encore:
22. Thank U
-Доп. информация: Собственный рип с фида Alanis Morissette - Guardian Angel Tour 2012 1080i HDTV 35 Mbps DTS-HD MA 5.1 MPEG2-TrollHD-Качество: HDTVRip 720p
Контейнер: MKV
Видео кодек: H.264
Аудио кодек: DTS
Видео: 1280x720 / 16:9 / 6358 Kbps / 29.970 fps
Аудио: DTS 1509 Kbps / 48.0 KHz / 5.1 Ch / 24 bit
Аудио 2: MP2 384 Kbps / 48.0 KHz / 2.0 Ch

x264 log

-[NoImage] x264 [info]: frame I:1494 Avg QP:17.85 size: 82204
-[NoImage] x264 [info]: frame P:43623 Avg QP:19.30 size: 53457
-[NoImage] x264 [info]: frame B:134886 Avg QP:21.48 size: 30393
-[NoImage] x264 [info]: consecutive B-frames: 2.7% 4.1% 13.3% 25.4% 18.9% 29.4% 6.2%

Отчёт MediaInfo / BDInfo

Код:
General
Unique ID                                : 170842565567831355101041424134345783645 (0x808714CEC93188DD883C9D135622F95D)
Complete name                            : D:\Alanis Morissette - Guardian Angel Tour 2012.x264.HDTV.720p.DTS.mkv
Format                                   : Matroska
Format version                           : Version 4 / Version 2
File size                                : 6.42 GiB
Duration                                 : 1h 49mn
Overall bit rate                         : 8 419 Kbps
Encoded date                             : UTC 2010-02-22 21:41:31
Writing application                      : mkvmerge v5.9.0 ('On The Loose') built on Dec  9 2012 15:37:01
Writing library                          : libebml v1.3.0 + libmatroska v1.4.0
Video
ID                                       : 1
Format                                   : AVC
Format/Info                              : Advanced Video Codec
Format profile                           : [email protected]
Format settings, CABAC                   : Yes
Format settings, ReFrames                : 9 frames
Codec ID                                 : V_MPEG4/ISO/AVC
Duration                                 : 1h 49mn
Bit rate                                 : 6 358 Kbps
Width                                    : 1 280 pixels
Height                                   : 720 pixels
Display aspect ratio                     : 16:9
Frame rate                               : 29.970 fps
Color space                              : YUV
Chroma subsampling                       : 4:2:0
Bit depth                                : 8 bits
Scan type                                : Progressive
Bits/(Pixel*Frame)                       : 0.230
Stream size                              : 4.85 GiB (76%)
Writing library                          : x264 core 125 r2200 999b753
Encoding settings                        : cabac=1 / ref=9 / deblock=1:-3:-3 / analyse=0x3:0x133 / me=umh / subme=9 / psy=1 / psy_rd=1.00:0.00 / mixed_ref=1 / me_range=24 / chroma_me=1 / trellis=2 / 8x8dct=1 / cqm=0 / deadzone=21,11 / fast_pskip=0 / chroma_qp_offset=-2 / threads=12 / lookahead_threads=2 / sliced_threads=0 / nr=0 / decimate=1 / interlaced=0 / bluray_compat=0 / constrained_intra=0 / bframes=6 / b_pyramid=2 / b_adapt=2 / b_bias=0 / direct=3 / weightb=1 / open_gop=0 / weightp=2 / keyint=300 / keyint_min=29 / scenecut=40 / intra_refresh=0 / rc=crf / mbtree=0 / crf=19.0 / qcomp=0.60 / qpmin=0 / qpmax=69 / qpstep=4 / ip_ratio=1.40 / pb_ratio=1.30 / aq=1:1.00
Language                                 : English
Default                                  : Yes
Forced                                   : No
Color primaries                          : BT.709-5, BT.1361, IEC 61966-2-4, SMPTE RP177
Transfer characteristics                 : BT.709-5, BT.1361
Matrix coefficients                      : BT.709-5, BT.1361, IEC 61966-2-4 709, SMPTE RP177
Audio #1
ID                                       : 2
Format                                   : DTS
Format/Info                              : Digital Theater Systems
Codec ID                                 : A_DTS
Duration                                 : 1h 49mn
Bit rate mode                            : Constant
Bit rate                                 : 1 510 Kbps
Channel(s)                               : 6 channels
Channel positions                        : Front: L C R, Side: L R, LFE
Sampling rate                            : 48.0 KHz
Bit depth                                : 24 bits
Compression mode                         : Lossy
Stream size                              : 1.15 GiB (18%)
Title                                    : DTS 5.1
Language                                 : English
Default                                  : Yes
Forced                                   : No
Audio #2
ID                                       : 3
Format                                   : MPEG Audio
Format version                           : Version 1
Format profile                           : Layer 2
Codec ID                                 : A_MPEG/L2
Codec ID/Hint                            : MP2
Duration                                 : 1h 49mn
Bit rate mode                            : Constant
Bit rate                                 : 384 Kbps
Channel(s)                               : 2 channels
Sampling rate                            : 48.0 KHz
Compression mode                         : Lossy
Stream size                              : 300 MiB (5%)
Title                                    : MP2 2.0
Language                                 : English
Default                                  : No
Forced                                   : No
Menu
00:00:00.000                             : en:Intro
00:01:40.000                             : en:I Remain (Segue 1)
00:04:12.000                             : en:Woman Down
00:08:00.000                             : en:All I Really Want
00:14:28.000                             : en:You Learn
00:18:40.000                             : en:Guardian
00:23:38.000                             : en:Mary Jane
00:29:26.000                             : en:Edge of Evolution
00:35:26.000                             : en:Right Through You
00:39:04.000                             : en:So Pure
00:42:16.000                             : en:Ironic
00:47:01.000                             : en:Havoc
00:52:56.000                             : en:Head Over Feet
00:58:00.000                             : en:Lens
01:02:36.000                             : en:I Remain (Segue 2)
01:04:37.000                             : en:Uninvited
01:10:10.000                             : en:You Oughta Know
01:16:25.000                             : en:Numb
01:24:52.000                             : en:Hand In My Pocket
01:30:32.000                             : en:Everything
01:35:20.000                             : en:Your House
01:41:24.000                             : en:Thank U

Скриншоты

Other forum [Profile] [PM]
Display posts from previous:    
Reply to topic

The time now is: Today 04:45

All times are GMT + 3 Hours



You cannot post new topics in this forum
You cannot reply to topics in this forum
You cannot edit your posts in this forum
You cannot delete your posts in this forum
You cannot vote in polls in this forum
You cannot attach files in this forum
You cannot download files in this forum