Today is a free download without charge Download

Братство десанта (1-16 серии из 16) (2012) DVB

Reply to topic
 
Author
Message

Varius ®

Gender:

Longevity: 11 years

Posts: 2428

Location: Hell

Торрент-статистика

Post 22-Dec-2012 15:38

[Quote]

Братство десанта (1-16 серии из 16) (2012) DVB- Русское название: Братство десанта
Оригинальное название: Братство десанта
Год выпуска: 2012
Страна: Россия, Украина / Триикс Медиа
Жанр: криминал-
Премьера (РФ): 10 декабря 2012 (ICTV, Украина)
Режиссер: Арменак Назикян, Виктор Татарский
Актеры: Сергей Горобченко, Максим Коновалов, Егор Пазенко, Фархад Махмудов, Михаил Полосухин, Иван Паршин, Ян Цапник, Алексей Осипов (II), Анатолий Кот, Екатерина Проскурина, Сергей Колос, Игорь Михайлов (IV), Никита Морозов, Роман Жилкин, Алексей Красноцветов, Константин Фисенко, Виталий Кудрявцев, Сергей Евдокимов, Сергей Воробьёв (IV), Михаил Сидаш, Олег Андреев, Денис Кириллов, Иван Васильев
Описание фильма:
Группа российских десантников вступает в бой с боевиками, укрывшимися в небольшой горной деревушке. Боевики уничтожены, но Артур Глебов – один из десанткниов – вдруг открывает огонь по мирным жителям, обвинив их в пособничестве бандитам. Десантники пытаются удержать товарища, но тот оказывает им сопротивление, убивает командира взвода. Десантники получают приказ отступить, забрав с собой мирных жителей; командование решило нанести по деревне ракетный удар. Глебов, оставшийся в деревне, признан погибшим в бою, его товарищи принимают решение не раскрывать обстоятельства его гибели, чтобы не бросить тень на «братство десанта». Прошли годы. Жизнь развела бывших однополчан. Кто-то стал врачом, кто-то строителем, кто-то полицейским, а кто-то кримнальным авторитетом. Майор полиции Демин, переживающий сложный развод с женой, случайно выходит на след террористов и арестовывает их лидера Анвара. Преступника забирают к себе сотрудники ФСБ, один из которых, как выясняется, встречается с бывшей женой Демина. А вскоре в городе появляется считавшийся погибшим Глебов. Он знает все о бывших однополчанах и вовлекает их в страшную и опасную игру. Те, кто отказываются играть по его правилам, или совершили ошибку, погибают-Продолжительность: серия ~ 00:47
Качество видео: DVB
Видеокодек: MPEG2
Битрейт видео: ~4190kbps avg
Размер кадра: 720x576 (4:3), 25.000 fps
Аудиокодек: MPEG Audio Layer 2
Аудио: 48 kHz, 2 ch, ~128 kbps avg
Субтитры: нет

MediaInfo:

Format : MPEG-PS
File size : 1.57 GiB
Duration : 51mn 3s
Overall bit rate mode : Variable
Overall bit rate : 4 393 Kbps
Writing library : (c) 1998-2010 Womble Multimedia, Inc. / MPEG Video Wizard DVD 5.0.0.114 (01/2010)
Video
ID : 224 (0xE0)
Format : MPEG Video
Format version : Version 2
Format profile : [email protected]
Format settings, BVOP : Yes
Format settings, Matrix : Custom
Format settings, GOP : Variable
Duration : 51mn 3s
Bit rate mode : Variable
Bit rate : 4 190 Kbps
Width : 720 pixels
Height : 576 pixels
Display aspect ratio : 4:3
Frame rate : 25.000 fps
Standard : PAL
Color space : YUV
Chroma subsampling : 4:2:0
Bit depth : 8 bits
Scan type : Interlaced
Scan order : Top Field First
Compression mode : Lossy
Bits/(Pixel*Frame) : 0.404
Stream size : 1.49 GiB (95%)
Audio
ID : 192 (0xC0)
Format : MPEG Audio
Format version : Version 1
Format profile : Layer 2
Duration : 51mn 3s
Bit rate mode : Constant
Bit rate : 128 Kbps
Channel(s) : 2 channels
Sampling rate : 48.0 KHz
Compression mode : Lossy
Stream size : 46.7 MiB (3%)
Скриншоты:
         
         
[

_________________

Создавая "Новую папку", не считайте себя Создателем - это право Вам дано Админом


Other forum [Profile] [PM]
Display posts from previous:    
Reply to topic

The time now is: Today 19:33

All times are GMT + 3 Hours



You cannot post new topics in this forum
You cannot reply to topics in this forum
You cannot edit your posts in this forum
You cannot delete your posts in this forum
You cannot vote in polls in this forum
You cannot attach files in this forum
You cannot download files in this forum