Today is a free download without charge Download

Superbus - Sunset(clips) [2012, pop-rock, HDTV 1080i]

Reply to topic
 
Author
Message

Omen ®

Longevity: 8 years 4 months

Posts: 181087

Торрент-статистика

Post 22-Dec-2012 12:52

[Quote]

Superbus - Sunset(clips)- Жанр: pop-rock
Год выпуска: 2012
1. All Alone - 00:03:33
2. A La Chaine - 00:03:45
3. Whisper - 00:04:15
Технические характеристики: одинаковы для всех клипов в раздаче.
Качество: HDTV 1080i
Контейнер: TS
Видео кодек: H.264
Аудио кодек: AC3
Видео: H.264; 1920x1080; ~7 113 Kbps ; 25.000 fps
Аудио: AC-3; 384 Kbps; 48,0 КГц; 6 ch

Отчёт MediaInfo

Complete name : Superbus\2. A La Chaine.tsFormat : MPEG-TSFile size : 213 MiBDuration : 3mn 45sOverall bit rate mode : VariableOverall bit rate : 7 890 Kbps
VideoID : 2020 (0x7E4)Menu ID : 202 (0xCA)Format : AVCFormat/Info : Advanced Video CodecFormat profile : [email protected]4.0Format settings, CABAC : YesFormat settings, ReFrames : 4 framesCodec ID : 27Duration : 3mn 45sBit rate : 7 113 KbpsWidth : 1 920 pixelsHeight : 1 080 pixelsDisplay aspect ratio : 16:9Frame rate : 25.000 fpsColor space : YUVChroma subsampling : 4:2:0Bit depth : 8 bitsScan type : MBAFFBits/(Pixel*Frame) : 0.137Stream size : 191 MiB (90%)Color primaries : BT.709Transfer characteristics : BT.709Matrix coefficients : BT.709
AudioID : 2021 (0x7E5)Menu ID : 202 (0xCA)Format : AC-3Format/Info : Audio Coding 3Mode extension : CM (complete main)Format settings, Endianness : BigCodec ID : 6Duration : 3mn 45sBit rate mode : ConstantBit rate : 384 KbpsChannel(s) : 6 channelsChannel positions : Front: L C R, Side: L R, LFESampling rate : 48.0 KHzBit depth : 16 bitsCompression mode : LossyDelay relative to video : 1msStream size : 10.3 MiB (5%)Language : French

Скриншоты

Other forum [Profile] [PM]
Display posts from previous:    
Reply to topic

The time now is: Today 09:55

All times are GMT + 3 Hours



You cannot post new topics in this forum
You cannot reply to topics in this forum
You cannot edit your posts in this forum
You cannot delete your posts in this forum
You cannot vote in polls in this forum
You cannot attach files in this forum
You cannot download files in this forum