Today is a free download without charge Download

ProfIT | Современные PHP-фреймворки (2017) PCRec [H.264/720p-LQ]

Reply to topic
 
Author
Message

Omen ®

Longevity: 7 years 10 months

Posts: 181087

Торрент-статистика

Post 22-Dec-2012 12:09

[Quote]

Современные PHP-фреймворки - Автор (режиссер): ProfIT
Производство: Альберт Степанцев
Жанр: Программирование, PHP
Описание:
Курс посвящен обзору трёх ведущих в настоящий момент фреймворков: Yii 2, Symfony 3, Laravel 5.
Понятия, базовые для любого современного MVC-фреймворка, такие как: роутинг и маршрутизация, построение контроллеров, шаблонизация, работа с базой данных, консольные приложения; рассматриваются на примере сразу трёх фреймворков, что позволяет вам в конце изучения курса сделать осознанный выбор в пользу глубокого изучения одного из них.
Продолжительность: 15:58:19
Качество видео: PCRec
Видео: AVC/H.264, 1330x720, ~345-445 Kbps
Аудио: AAC, 2 ch, 235 Kbps

Mediainfo:

Общее
Полное имя : .\01 Composer. Развертывание приложения\lesson1.MP4
Формат : MPEG-4
Профиль формата : Base Media / Version 2
Идентификатор кодека : mp42 (mp42/mp41/isom/avc1)
Размер файла : 553 Мбайт
Продолжительность : 1 ч. 52 м.
Режим общего битрейта : Переменный
Общий поток : 685 Кбит/сек
Дата кодирования : UTC 2017-08-09 19:55:38
Дата пометки : UTC 2017-08-09 19:55:38
Видео
Идентификатор : 1
Формат : AVC
Формат/Информация : Advanced Video Codec
Профиль формата : [url=mailto:[email protected]][email protected][/url]
Настройки формата : CABAC / 5 Ref Frames
Параметр CABAC формата : Да
Параметр RefFrames формата : 5 кадров
Параметр GOP формата : M=4, N=75
Идентификатор кодека : avc1
Идентификатор кодека/Информация : Advanced Video Coding
Продолжительность : 1 ч. 52 м.
Битрейт : 446 Кбит/сек
Ширина : 1330 пикселей
Высота : 720 пикселей
Соотношение сторон : 1,85:1
Режим частоты кадров : Постоянный
Частота кадров : 25,000 кадров/сек
Цветовое пространство : YUV
Субдискретизация насыщенности : 4:2:0
Битовая глубина : 8 бит
Тип развёртки : Прогрессивная
Бит/(Пиксели*Кадры) : 0.019
Размер потока : 360 Мбайт (65%)
Библиотека кодирования : x264 core 150 r10 df79067
Настройки программы : cabac=1 / ref=5 / deblock=1:0:0 / analyse=0x3:0x113 / me=hex / subme=8 / psy=1 / psy_rd=1.00:0.00 / mixed_ref=1 / me_range=16 / chroma_me=1 / trellis=2 / 8x8dct=1 / cqm=0 / deadzone=21,11 / fast_pskip=1 / chroma_qp_offset=-2 / threads=22 / lookahead_threads=3 / sliced_threads=0 / nr=0 / decimate=1 / interlaced=0 / bluray_compat=0 / stitchable=1 / constrained_intra=0 / bframes=3 / b_pyramid=2 / b_adapt=1 / b_bias=0 / direct=3 / weightb=1 / open_gop=0 / weightp=2 / keyint=infinite / keyint_min=25 / scenecut=40 / intra_refresh=0 / rc_lookahead=50 / rc=crf / mbtree=1 / crf=20.0 / qcomp=0.60 / qpmin=5 / qpmax=69 / qpstep=4 / vbv_maxrate=2750 / vbv_bufsize=7500 / crf_max=0.0 / nal_hrd=none / filler=0 / ip_ratio=1.40 / aq=1:1.00
Дата кодирования : UTC 2017-08-09 19:55:38
Дата пометки : UTC 2017-08-09 19:55:38
Цветовой диапазон : Limited
Основные цвета : BT.709
Характеристики трансфера : BT.709
Коэффициенты матрицы : BT.709
Аудио
Идентификатор : 2
Формат : AAC
Формат/Информация : Advanced Audio Codec
Профиль формата : LC
Идентификатор кодека : mp4a-40-2
Продолжительность : 1 ч. 52 м.
Вид битрейта : Переменный
Битрейт : 235 Кбит/сек
Каналы : 2 канала
Расположение каналов : Front: L R
Частота : 48,0 КГц
Частота кадров : 46,875 кадров/сек (1024 SPF)
Метод сжатия : С потерями
Размер потока : 190 Мбайт (34%)
Дата кодирования : UTC 2017-08-09 19:55:38
Дата пометки : UTC 2017-08-09 19:55:38

Дополнительная информация:

Модули курса (уроки):
1. Composer. Развертывание приложения.
2. Роутинг. Контроллеры. Middleware.
3. Слой представления. Шаблонизаторы.
4. Работа с базой данных. Миграции. Модели данных.
5. Работа с базой данных. Слой ORM.
6. Работа с базой данных. Реализация связей.
7. Сервисы. Контейнеры. Управление зависимостями.
8. Реализация кэширования в фреймворках.
9. Инструменты разработки и отладка.
10. Немного о фронтэнде: публикация и управление ресурсами.
Скриншоты:
       
Other forum [Profile] [PM]
Display posts from previous:    
Reply to topic

The time now is: Today 14:13

All times are GMT + 3 Hours



You cannot post new topics in this forum
You cannot reply to topics in this forum
You cannot edit your posts in this forum
You cannot delete your posts in this forum
You cannot vote in polls in this forum
You cannot attach files in this forum
You cannot download files in this forum