Today is a free download without charge Download

Calexico - Live At Rolling Stone Weekender [2012, Alt. Country, Americana, Indie Rock, HDTVRip 720p]

Reply to topic
 
Author
Message

Omen ®

Longevity: 8 years 4 months

Posts: 181087

Торрент-статистика

Post 21-Dec-2012 21:24

[Quote]

Calexico - Live At Rolling Stone Weekender
Жанр: Alt. Country, Americana, Indie Rock
Продолжительность: 00:58:54
Год выпуска: 2012
Треклист:
01. Roka
02. Minas De Cobre (For Better Metal)
03. Inspiracion
04. Sunken Waltz
05. Corona
06. Miss Ohio
07. Victor Jara's Hands
08. All Systems Red
09. Alone Again Or
10. Puerto
11. Crystel Frontier
12. Guero Canelo
Качество: HDTVRip 720p
Контейнер: MKV
Видео кодек: H.264
Аудио кодек: AC3
Видео: AVC, 1272x712, 16:9, 5000 Kbps, 25 fps
Аудио: AC3, 448 Kbps, 48 KHz, 2 ch

MediaInfo

GeneralUnique ID : 198510316938063145703844855442112529192 (0x9557B2450C2ABCEBBEEB0B0FD4E84328)Complete name : K:\Calexico-Live_At_Rolling_Stone_Weekender_(2012)-720p-x264-2012-gFViD\calexico-live_at_rolling_stone_weekender_(2012)-720p-x264-2012.mkvFormat : MatroskaFormat version : Version 2File size : 2.24 GiBDuration : 58mn 54sOverall bit rate : 5 450 KbpsEncoded date : UTC 2012-12-17 23:33:41Writing application : mkvmerge v5.8.0 ('No Sleep / Pillow') built on Sep 2 2012 15:37:04Writing library : libebml v1.2.3 + libmatroska v1.3.0
VideoID : 1Format : AVCFormat/Info : Advanced Video CodecFormat profile : [email protected] settings, CABAC : YesFormat settings, ReFrames : 4 framesCodec ID : V_MPEG4/ISO/AVCDuration : 58mn 54sBit rate : 5 000 KbpsWidth : 1 272 pixelsHeight : 712 pixelsDisplay aspect ratio : 16:9Frame rate : 25.000 fpsColor space : YUVChroma subsampling : 4:2:0Bit depth : 8 bitsScan type : ProgressiveBits/(Pixel*Frame) : 0.221Stream size : 2.01 GiB (90%)Writing library : x264 core 129 r2230 1cffe9fEncoding settings : cabac=1 / ref=4 / deblock=1:0:0 / analyse=0x3:0x113 / me=umh / subme=9 / psy=1 / psy_rd=1.00:0.00 / mixed_ref=1 / me_range=32 / chroma_me=1 / trellis=1 / 8x8dct=1 / cqm=0 / deadzone=21,11 / fast_pskip=1 / chroma_qp_offset=-2 / threads=9 / lookahead_threads=1 / sliced_threads=0 / nr=0 / decimate=1 / interlaced=0 / bluray_compat=0 / constrained_intra=0 / bframes=3 / b_pyramid=2 / b_adapt=1 / b_bias=0 / direct=1 / weightb=1 / open_gop=0 / weightp=2 / keyint=250 / keyint_min=25 / scenecut=40 / intra_refresh=0 / rc_lookahead=40 / rc=2pass / mbtree=1 / bitrate=5000 / ratetol=1.0 / qcomp=0.60 / qpmin=0 / qpmax=69 / qpstep=4 / cplxblur=20.0 / qblur=0.5 / ip_ratio=1.40 / aq=1:1.00Default : YesForced : No
AudioID : 2Format : AC-3Format/Info : Audio Coding 3Mode extension : CM (complete main)Format settings, Endianness : BigCodec ID : A_AC3Duration : 58mn 54sBit rate mode : ConstantBit rate : 448 KbpsChannel(s) : 2 channelsChannel positions : Front: L RSampling rate : 48.0 KHzBit depth : 16 bitsCompression mode : LossyStream size : 189 MiB (8%)Default : YesForced : No

Скриншоты


Other forum [Profile] [PM]
Display posts from previous:    
Reply to topic

The time now is: Today 15:40

All times are GMT + 3 Hours



You cannot post new topics in this forum
You cannot reply to topics in this forum
You cannot edit your posts in this forum
You cannot delete your posts in this forum
You cannot vote in polls in this forum
You cannot attach files in this forum
You cannot download files in this forum