Today is a free download without charge Download

Новая полицейская история / New Police Story / Xin jing cha gu shi (Бенни Чан) [2012 , Боевик, триллер, драма, криминал]BDRip 1080p

Reply to topic
 
Author
Message

DeadMmau5 ®

Gender:

Longevity: 8 years 6 months

Posts: 155

Location: Поскот

Торрент-статистика

Post 21-Dec-2012 21:19

[Quote]


Новая полицейская история
Xin jing cha gu shi
--«На этот раз пощады не будет.»--Год выхода: 2004
Жанр: Боевик, триллер, драма, криминал
Режиссер: Бенни Чан--В ролях: Джеки Чан, Николас Тсе, Чарли Енг, Шарлин Чой, Дэниэл Ву, Дейв Вон, Энди Он, Теренс Йин, Hiroyoshi Komuro, Коко Чианг, Асука Хигучи, Дип Нг, Кеннет Лоу, Тони Хо, Тимми Хунг, Карл Нг, Хой Линь, Сэмюэл Пэнг, Филип Нг, Джон Шам, Мэнди Чунг, Кои Вонг, Алва Чунь, Родерик Лам--О фильме: Команда инспектора Винга почти полностью уничтожена в неравной схватке с гангстерами. Чудом оставшийся в живых полицейский винит себя в смерти друзей и начинает искать забвение в алкоголе. Новый напарник инспектора, молодой офицер помогает Вингу вернуться к жизни. Вместе они бросают вызов мафии Гонконга и вступают на путь мести, чтобы наказать убийц своих товарищей.-- --Страна: Гонконг, Китай
Выпущено: China Film Group Corporation, JCE Entertainment Ltd.
Продолжительность: 02:02:54
Перевод: Профессиональный (Дублированный)--

Интересно

• Новая работа Чана стала своего рода дебютом актера в новом качестве. Впервые с начала своей карьеры в кино мастер отказывается от привычного амплуа героя-комедианта и демонстрирует иную грань своего таланта, исполняя драматическую роль.
• У себя на родине в Гонконге «Новая полицейская история» попала в списки лидеров проката, собрав только за первые три дня около $2,5 млн.
• Кинотеатры Китая получили более 400 копий фильма, чтобы удовлетворить зрительский интерес, что принесло его создателям еще около 12 млн.
• Universal Pictures уже приобрела права на прокат «Новой полицейской истории» в Японии и Корее.
• Несмотря на название, этот фильм никак не связан с предыдущими 4 частями: во-первых, в тех фильмах героя Джеки зовут Кевин Чан (Чан Гакхёй), а здесь возникает Чан Гвоквинг. Во-вторых, комических эпизодов в этом фильме нет, сюжет более близок к драме.
• Высота с которой Джеки Чан спускался в наручниках составила 27 этажей.
--Файл
Кодек: x264
Формат: MKV
Качество: BDRip 1080p
Видео: AVC ([email protected]) 1920x816 (2.35:1), 23.976 fps, 6270 kbps, 0,167 Bits/Pixel
Аудио: DD (AC-3) 5.1 ch, 448 kbps
Субтитры: Русские, Английские--

MI

General
Unique ID : 212861820111994152982697009578724814812 (0xA023B2019BCFB59E8540926FDB87EFDC)
Format : Matroska
Format version : Version 2
File size : 5.77 GiB
Duration : 2h 2mn
Overall bit rate : 6 721 Kbps
Movie name : Новая полицейская история (2004) BDRip (1080p)
Encoded date : UTC 2012-12-20 14:19:43
Writing application : mkvmerge v5.8.0 ('No Sleep / Pillow') built on Sep 2 2012 15:37:04
Writing library : libebml v1.2.3 + libmatroska v1.3.0
Video
ID : 1
Format : AVC
Format/Info : Advanced Video Codec
Format profile : [email protected]
Format settings, CABAC : Yes
Format settings, ReFrames : 5 frames
Codec ID : V_MPEG4/ISO/AVC
Duration : 2h 2mn
Bit rate : 6 270 Kbps
Width : 1 920 pixels
Height : 816 pixels
Display aspect ratio : 2.35:1
Frame rate mode : Constant
Frame rate : 23.976 fps
Color space : YUV
Chroma subsampling : 4:2:0
Bit depth : 8 bits
Scan type : Progressive
Bits/(Pixel*Frame) : 0.167
Stream size : 5.27 GiB (91%)
Title : Release by Alex260680
Writing library : x264 core 129 r2230 1cffe9f
Encoding settings : cabac=1 / ref=5 / deblock=1:0:0 / analyse=0x3:0x113 / me=umh / subme=10 / psy=1 / psy_rd=1.00:0.10 / mixed_ref=1 / me_range=32 / chroma_me=1 / trellis=2 / 8x8dct=1 / cqm=0 / deadzone=21,11 / fast_pskip=0 / chroma_qp_offset=-3 / threads=12 / lookahead_threads=2 / sliced_threads=0 / nr=0 / decimate=0 / interlaced=0 / bluray_compat=0 / constrained_intra=0 / bframes=5 / b_pyramid=2 / b_adapt=2 / b_bias=0 / direct=3 / weightb=1 / open_gop=0 / weightp=2 / keyint=240 / keyint_min=23 / scenecut=40 / intra_refresh=0 / rc=2pass / mbtree=0 / bitrate=6270 / ratetol=1.0 / qcomp=0.60 / qpmin=0 / qpmax=69 / qpstep=4 / cplxblur=20.0 / qblur=0.5 / ip_ratio=1.40 / pb_ratio=1.30 / aq=1:0.80
Language : English
Default : Yes
Forced : No
Audio
ID : 2
Format : AC-3
Format/Info : Audio Coding 3
Mode extension : CM (complete main)
Format settings, Endianness : Big
Codec ID : A_AC3
Duration : 2h 2mn
Bit rate mode : Constant
Bit rate : 448 Kbps
Channel(s) : 6 channels
Channel positions : Front: L C R, Side: L R, LFE
Sampling rate : 48.0 KHz
Bit depth : 16 bits
Compression mode : Lossy
Delay relative to video : 267ms
Stream size : 394 MiB (7%)
Title : DUB
Language : Russian
Default : Yes
Forced : No
Text #1
ID : 3
Format : UTF-8
Codec ID : S_TEXT/UTF8
Codec ID/Info : UTF-8 Plain Text
Language : Russian
Default : No
Forced : No
Text #2
ID : 4
Format : UTF-8
Codec ID : S_TEXT/UTF8
Codec ID/Info : UTF-8 Plain Text
Language : English
Default : No
Forced : No
Menu
00:00:00.000 : en:Chapter1
00:05:00.008 : en:Chapter2
00:10:00.016 : en:Chapter3
00:15:00.024 : en:Chapter4
00:20:00.032 : en:Chapter5
00:25:00.040 : en:Chapter6
00:30:00.006 : en:Chapter7
00:35:00.014 : en:Chapter8
00:40:00.022 : en:Chapter9
00:45:00.030 : en:Chapter10
00:50:00.038 : en:Chapter11
00:55:00.005 : en:Chapter12
01:00:00.013 : en:Chapter13
01:05:00.021 : en:Chapter14
01:10:00.029 : en:Chapter15
01:15:00.037 : en:Chapter16
01:20:00.003 : en:Chapter17
01:25:00.011 : en:Chapter18
01:30:00.019 : en:Chapter19
01:35:00.027 : en:Chapter20
01:40:00.035 : en:Chapter21
01:45:00.002 : en:Chapter22
01:50:00.010 : en:Chapter23
01:55:00.018 : en:Chapter24
02:00:00.026 : en:Chapter25
--

x264

x264 [info]: frame I:1603 Avg QP:18.40 size:141228
x264 [info]: frame P:41715 Avg QP:20.92 size: 61403
x264 [info]: frame B:133498 Avg QP:22.33 size: 22418
--        ---

_________________
Other forum [Profile] [PM]
Display posts from previous:    
Reply to topic

The time now is: Today 05:09

All times are GMT + 3 Hours



You cannot post new topics in this forum
You cannot reply to topics in this forum
You cannot edit your posts in this forum
You cannot delete your posts in this forum
You cannot vote in polls in this forum
You cannot attach files in this forum
You cannot download files in this forum