Today is a free download without charge Download

The Beatles - Help! [1965, Rock, DVDRip+HDTVRip 720p]

Reply to topic
 
Author
Message

Omen ®

Longevity: 8 years 3 months

Posts: 181087

Торрент-статистика

Post 20-Dec-2012 18:56

[Quote]

The Beatles - Help!
Жанр: Rock
Продолжительность: 1:32:11
Год выпуска: 1965
Описание: Треклист:
- Help!
- You're Going To Lose That Girl
- You've Got To Hide Your Love Away
- Ticket To Ride
- The Night Before
- I Need You
- Another Girl
Перевод и озвучка Максима Жолобова.
Качество: DVDRip+HDTVRip 720p
Контейнер: MP4
Видео кодек: H.264
Аудио кодек: AAC
Видео: MPEG-4 AVC 1280x720 16:9 5250 kbps 25 fps
Аудио: AAC 384 kbps 48 kHz 2 ch

Отчёт MediaInfo / BDInfo

General Complete name : Help720pRemaster.mp4 Format : MPEG-4 Format profile : Base Media / Version 2 Codec ID : mp42 File size : 3.61 GiB Duration : 1h 32mn Overall bit rate : 5 608 Kbps Encoded date : UTC 2012-12-20 07:13:06 Tagged date : UTC 2012-12-20 07:13:06 Video #1 ID : 1 Format : AVC Format/Info : Advanced Video Codec Format profile : [email protected] Format settings, CABAC : Yes Format settings, ReFrames : 3 frames Codec ID : avc1 Codec ID/Info : Advanced Video Coding Duration : 1h 32mn Bit rate mode : Variable Bit rate : 5 220 Kbps Width : 1 280 pixels Height : 720 pixels Display aspect ratio : 16:9 Frame rate mode : Constant Frame rate : 25.000 fps Standard : PAL Color space : YUV Chroma subsampling : 4:2:0 Bit depth : 8 bits Scan type : Progressive Bits/(Pixel*Frame) : 0.227 Stream size : 3.36 GiB (93%) Language : English Encoded date : UTC 2012-12-20 07:13:06 Tagged date : UTC 2012-12-20 07:13:06 Audio #2 ID : 2 Format : AAC Format/Info : Advanced Audio Codec Format version : Version 4 Format profile : LC Codec ID : 40 Duration : 1h 32mn Bit rate mode : Variable Bit rate : 384 Kbps Maximum bit rate : 576 Kbps Channel(s) : 2 channels Channel positions : Front: L R Sampling rate : 48.0 KHz Compression mode : Lossy Stream size : 253 MiB (7%) Language : English Encoded date : UTC 2012-12-20 07:13:06 Tagged date : UTC 2012-12-20 07:13:06
Other forum [Profile] [PM]
Display posts from previous:    
Reply to topic

The time now is: Today 21:56

All times are GMT + 3 Hours



You cannot post new topics in this forum
You cannot reply to topics in this forum
You cannot edit your posts in this forum
You cannot delete your posts in this forum
You cannot vote in polls in this forum
You cannot attach files in this forum
You cannot download files in this forum