Today is a free download without charge Download

The Rolling Stones feat. Lady Gaga - Gimme Shelter [2012, Rock, HDTVRip 720p]

Reply to topic
 
Author
Message

Omen ®

Longevity: 8 years 3 months

Posts: 181087

Торрент-статистика

Post 20-Dec-2012 00:00

[Quote]

The Rolling Stones feat. Lady Gaga - Gimme Shelter-
Жанр: Rock
Продолжительность: 00:07:12
Год выпуска: 2012
Описание: Последний концерт в рамках тура в честь своего 50 летнего юбилея в Ньюарке 15.12.2012 - Gimme Shelter с Lady Gaga.
Качество: HDTVRip 720p
Контейнер: MKV
Видео кодек: H.264
Аудио кодек: DTS
Видео: 1280x720 / 16:9 / 10.5 Mbps / 29.970 fps
Аудио: 1509 Kbps / 48.0 KHz / 5.1 Ch / 24 bit

Отчёт MediaInfo / BDInfo

GeneralUnique ID : 187375035119960417454622545226548869422 (0x8CF71E7D20F9EE78918DF648A307792E)Complete name : F:\The Rolling Stones feat Lady Gaga - Gimme Shelter HDTV 720p DTS.mkvFormat : MatroskaFormat version : Version 4 / Version 2File size : 658 MiBDuration : 7mn 28sOverall bit rate : 12.3 MbpsEncoded date : UTC 2010-02-22 21:41:31Writing application : mkvmerge v5.9.0 ('On The Loose') built on Dec 9 2012 15:37:01Writing library : libebml v1.3.0 + libmatroska v1.4.0
VideoID : 1Format : AVCFormat/Info : Advanced Video CodecFormat profile : [email protected] settings, CABAC : YesFormat settings, ReFrames : 9 framesCodec ID : V_MPEG4/ISO/AVCDuration : 7mn 28sBit rate : 10.5 MbpsWidth : 1 280 pixelsHeight : 720 pixelsDisplay aspect ratio : 16:9Frame rate : 29.970 fpsColor space : YUVChroma subsampling : 4:2:0Bit depth : 8 bitsScan type : ProgressiveBits/(Pixel*Frame) : 0.382Stream size : 564 MiB (86%)Writing library : x264 core 125 r2200 999b753Encoding settings : cabac=1 / ref=9 / deblock=1:-3:-3 / analyse=0x3:0x133 / me=umh / subme=11 / psy=1 / psy_rd=1.00:0.00 / mixed_ref=1 / me_range=24 / chroma_me=1 / trellis=2 / 8x8dct=1 / cqm=0 / deadzone=21,11 / fast_pskip=0 / chroma_qp_offset=-2 / threads=12 / lookahead_threads=2 / sliced_threads=0 / nr=0 / decimate=1 / interlaced=0 / bluray_compat=0 / constrained_intra=0 / bframes=6 / b_pyramid=2 / b_adapt=2 / b_bias=0 / direct=3 / weightb=1 / open_gop=0 / weightp=2 / keyint=300 / keyint_min=29 / scenecut=40 / intra_refresh=0 / rc=crf / mbtree=0 / crf=19.0 / qcomp=0.60 / qpmin=0 / qpmax=69 / qpstep=4 / ip_ratio=1.40 / pb_ratio=1.30 / aq=1:1.00Language : EnglishDefault : YesForced : NoColor primaries : BT.709-5, BT.1361, IEC 61966-2-4, SMPTE RP177Transfer characteristics : BT.709-5, BT.1361Matrix coefficients : BT.709-5, BT.1361, IEC 61966-2-4 709, SMPTE RP177
AudioID : 2Format : DTSFormat/Info : Digital Theater SystemsCodec ID : A_DTSDuration : 7mn 28sBit rate mode : ConstantBit rate : 1 510 KbpsChannel(s) : 6 channelsChannel positions : Front: L C R, Side: L R, LFESampling rate : 48.0 KHzBit depth : 24 bitsCompression mode : LossyStream size : 80.7 MiB (12%)Default : YesForced : No

Скриншоты

Other forum [Profile] [PM]
Display posts from previous:    
Reply to topic

The time now is: Today 09:26

All times are GMT + 3 Hours



You cannot post new topics in this forum
You cannot reply to topics in this forum
You cannot edit your posts in this forum
You cannot delete your posts in this forum
You cannot vote in polls in this forum
You cannot attach files in this forum
You cannot download files in this forum