Today is a free download without charge Download

Paul McCartney - Live at 12-12-12: The Concert for Sandy Relief [2012, Rock, HDTVRip 720p]

Reply to topic
 
Author
Message

Omen ®

Longevity: 8 years 4 months

Posts: 181087

Торрент-статистика

Post 19-Dec-2012 13:28

[Quote]

Paul McCartney - Live at 121212: The Concert for Sandy Relief- Жанр: Rock
Продолжительность: 00:37:49
Год выпуска: 2012-Описание: Выступление Пола Маккартни на благотворительном концерте в помощь пострадавшим от урагана Сэнди 12 декабря 2012 г. в Мэдисон-сквер-гарден в Нью-Йорке.
Треклист:
1. Helter Skelter
2. Let Me Roll It
3. Nineteen Hundred and Eighty Five
4. My Valentine (with Diana Krall)
5. Blackbird
6. Cut Me Some Slack (with Nirvana)
7. I Got a Feeling
8. Live and Let Die-Доп. информация: Собственный рип с фида 12-12-12 - The Concert For Sandy Relief (2012) 1080i HDTV 36 Mbps MPA2.0 MPEG2-TrollHD-Качество: HDTVRip 720p
Контейнер: MKV
Видео кодек: H.264
Аудио кодек: MP2
Видео: 1280x720 / 16:9 / 8010 Kbps / 29.970 fps
Аудио: 384 Kbps / 48.0 KHz / 2.0 Ch

x264

-[NoImage] x264 [info]: frame I:276 Avg QP:19.45 size:121828
-[NoImage] x264 [info]: frame P:15712 Avg QP:20.53 size: 58633
-[NoImage] x264 [info]: frame B:52043 Avg QP:22.76 size: 26240
-[NoImage] x264 [info]: consecutive B-frames: 2.4% 2.6% 8.7% 24.1% 18.3% 40.6% 3.4%

Отчёт MediaInfo / BDInfo

GeneralUnique ID : 196851937909524602884948372898673780982 (0x94184DDEF0EB2193AAA7DB57899EE8F6)Complete name : F:\Paul McCartney The Concert For Sandy Relief (2012) 720p HDTV MPA2.0.mkvFormat : MatroskaFormat version : Version 4 / Version 2File size : 2.26 GiBDuration : 37mn 49sOverall bit rate : 8 564 KbpsEncoded date : UTC 2010-02-22 21:41:31Writing application : mkvmerge v5.9.0 ('On The Loose') built on Dec 9 2012 15:37:01Writing library : libebml v1.3.0 + libmatroska v1.4.0
VideoID : 1Format : AVCFormat/Info : Advanced Video CodecFormat profile : [email protected] settings, CABAC : YesFormat settings, ReFrames : 9 framesCodec ID : V_MPEG4/ISO/AVCDuration : 37mn 49sBit rate : 8 010 KbpsWidth : 1 280 pixelsHeight : 720 pixelsDisplay aspect ratio : 16:9Frame rate : 29.970 fpsColor space : YUVChroma subsampling : 4:2:0Bit depth : 8 bitsScan type : ProgressiveBits/(Pixel*Frame) : 0.290Stream size : 2.12 GiB (94%)Writing library : x264 core 125 r2200 999b753Encoding settings : cabac=1 / ref=9 / deblock=1:-2:-2 / analyse=0x3:0x133 / me=umh / subme=9 / psy=1 / psy_rd=1.00:0.00 / mixed_ref=1 / me_range=24 / chroma_me=1 / trellis=2 / 8x8dct=1 / cqm=0 / deadzone=21,11 / fast_pskip=0 / chroma_qp_offset=-2 / threads=12 / lookahead_threads=2 / sliced_threads=0 / nr=0 / decimate=1 / interlaced=0 / bluray_compat=0 / constrained_intra=0 / bframes=6 / b_pyramid=2 / b_adapt=2 / b_bias=0 / direct=3 / weightb=1 / open_gop=0 / weightp=2 / keyint=300 / keyint_min=29 / scenecut=40 / intra_refresh=0 / rc=crf / mbtree=0 / crf=19.0 / qcomp=0.60 / qpmin=0 / qpmax=69 / qpstep=4 / ip_ratio=1.40 / pb_ratio=1.30 / aq=1:1.00Language : EnglishDefault : YesForced : NoColor primaries : BT.709-5, BT.1361, IEC 61966-2-4, SMPTE RP177Transfer characteristics : BT.709-5, BT.1361Matrix coefficients : BT.709-5, BT.1361, IEC 61966-2-4 709, SMPTE RP177
AudioID : 2Format : MPEG AudioFormat version : Version 1Format profile : Layer 2Codec ID : A_MPEG/L2Codec ID/Hint : MP2Duration : 37mn 49sBit rate mode : ConstantBit rate : 384 KbpsChannel(s) : 2 channelsSampling rate : 48.0 KHzCompression mode : LossyDelay relative to video : 3msStream size : 104 MiB (4%)Default : YesForced : No
Menu00:00:00.000 : en:Helter Skelter00:05:09.000 : en:Let Me Roll It00:09:57.000 : en:Nineteen Hundred and Eighty Five00:14:10.000 : en:My Valentine00:19:14.000 : en:Blackbird00:22:35.000 : en:Cut Me Some Slack00:29:04.000 : en:I Got a Feeling00:33:37.000 : en:Live and Let Die

Скриншоты

Other forum [Profile] [PM]

радист

Gender:

Longevity: 10 years

Posts: 164

Торрент-статистика

Post 19-Dec-2012 20:05 (after 6 hours)

[Quote]

Супер- спасибо!

_________________
Дураков на свете не много, но расставлены они так грамотно, что встречаются на каждом шагу.
Other forum [Profile] [PM]
Display posts from previous:    
Reply to topic

The time now is: Today 15:15

All times are GMT + 3 Hours



You cannot post new topics in this forum
You cannot reply to topics in this forum
You cannot edit your posts in this forum
You cannot delete your posts in this forum
You cannot vote in polls in this forum
You cannot attach files in this forum
You cannot download files in this forum