Today is a free download without charge Download

А.Ющенко | Как разогнать компьютер [2012] DVDRip

Reply to topic
 
Author
Message

sashau ®

Gender:

Longevity: 8 years 9 months

Posts: 3497

Торрент-статистика

Post 19-Dec-2012 10:34

[Quote]

А.Ющенко | Как разогнать компьютер [2012] DVDRip- Автор: А.Ющенко
Название: Как разогнать компьютер
Год выпуска: 2012
Жанр: Обучающее видео
Качество видео: DVDRip
Продолжительность: 00:16:00
Видеокодек: DivX 4
Битрейт видео: ~2501 Кбит/сек
Размер кадра: 852х480
Аудиокодек: MP3, 2ch
Битрейт аудио: 128 Кбит/сек
Описание:
Все время издаются все более новые компьютерные игры, с крутой графикой и поразительными эффектами и не одной тысячей поклонников. Но приобретать каждый раз компьютерные комплектующие под новую игрушку не каждый сможет, а так хотелось бы, чтобы долгожданная новинка не тормозила, чтобы не пришлось отключать навороченные эффекты, чтобы с головой погрузиться в процесс игры без недосказанностей и оценить современную графику.
Разгон процессора поможет весомо поднять производительность без финансовых вложений. Большинство пользователей, которые желают увеличить производительность компьютера, пытаются сделать оверклокинг. Один из лучших вариантов разгона - выполнять его до загрузки Windows, из-под BIOS.
Что такое оверклокинг? Разгон (overclocking) — это увеличение производительности персонального компьютера (процессор, видео карта, память), за счёт увеличения их штатных характеристик.
Видео "Как разогнать компьютер" поможет вам сделать все правильно.

MediaInfo:

Общее
Полное имя : bios_razgon.avi
Формат : AVI
Формат/Информация : Audio Video Interleave
Размер файла : 310 Мбайт
Продолжительность : 16 м.
Общий поток : 2641 Кбит/сек
Программа кодирования : Lavf52.56.1
Видео
Идентификатор : 0
Формат : MPEG-4 Visual
Профиль формата : [email protected]
Параметр BVOP формата : Нет
Параметр QPel формата : Нет
Параметр GMC формата : Без точки перехода
Параметр матрицы формата : Default (H.263)
Идентификатор кодека : DIVX
Идентификатор кодека/Информация : Project Mayo
Идентификатор кодека/Подсказка : DivX 4
Продолжительность : 16 м.
Битрейт : 2501 Кбит/сек
Ширина : 852 пикселя
Высота : 480 пикселей
Соотношение сторон : 16:9
Частота кадров : 29,000 кадров/сек
Цветовое пространство : YUV
Субдискретизация насыщенности : 4:2:0
Битовая глубина : 8 бит
Тип развёртки : Прогрессивная
Метод сжатия : С потерями
Бит/(Пиксели*Кадры) : 0.211
Размер потока : 293 Мбайт (95%)
Библиотека кодирования : Lavc52.59.0
Аудио
Идентификатор : 1
Формат : MPEG Audio
Версия формата : Version 1
Профиль формата : Layer 3
Режим : Joint stereo
Расширение режима : MS Stereo
Идентификатор кодека : 55
Идентификатор кодека/Подсказка : MP3
Продолжительность : 16 м.
Вид битрейта : Постоянный
Битрейт : 128 Кбит/сек
Каналы : 2 канала
Частота : 44,1 КГц
Метод сжатия : С потерями
Размер потока : 15,0 Мбайт (5%)
Выравнивание : Соединение по промежуткам
Продолжительность промежутка : 26 мс. (0,76 видеокадр)
Скриншоты:
       
Other forum [Profile] [PM]
Display posts from previous:    
Reply to topic

The time now is: Today 09:32

All times are GMT + 3 Hours



You cannot post new topics in this forum
You cannot reply to topics in this forum
You cannot edit your posts in this forum
You cannot delete your posts in this forum
You cannot vote in polls in this forum
You cannot attach files in this forum
You cannot download files in this forum