Today is a free download without charge Download

Когда Гарри встретил Салли / When Harry Met Sally... (Роб Райнер / Rob Reiner) [1989, США, драма, мелодрама, комедия, BDRip 720p]

Reply to topic
 
Author
Message

Delia ®

Gender:

Longevity: 9 years 6 months

Posts: 1821

Торрент-статистика

Post 16-Apr-2011 15:40

[Quote]

Когда Гарри встретил СаллиWhen Harry Met Sally... Год выпуска:1989
Страна: США
Жанр: драма, мелодрама, комедия
Продолжительность: 01:35:31
Перевод: Профессиональный (многоголосый закадровый)
Режиссер:Роб Райнер
Продюссер:Нора Эфрон, Стив Николаидес, Роб Райнер
Сценарий:Нора Эфрон
Бюджет: $16 000 000
Премьера в мире: 12 июля 1989
В ролях:Билли Кристал, Мег Райан, Кэрри Фишер, Бруно Кёрби, Стивен Форд, Лиза Джейн, Перски Мишель, Никастро Гретхен, Палмер Роберт, Алан Бойт, Дэвид Бёрдик
Описание:Гарри и Салли знакомы со времен сотворения мира. Они вместе учились, приходят друг другу на выручку в любых жизненных передрягах, помогают в поисках близкого человека. Даже когда они теряют друг друга из виду, судьба сводит их снова и снова. Они лучшие друзья уже тысячу лет. Но их дружба постоянно находится под угрозой. Обоих настойчиво мучает вопрос: не следует ли им стать больше, чем друзьями?
Могут ли мужчина и женщина дружить по-настоящему? Или такая дружба неминуемо рано или поздно заканчивается более тесными отношениями?
Качество:BDRip 720p ( Blu-ray disc 1080p)
Формат: MKV
Видео кодек:H264
Аудио кодек:AC3
Видео:English, 5989 Кбит/сек, 1280*688 (1,860), в 23,976 кадр/сек, AVC
Аудио: Russian, 448 Кбит/сек, 48,0 КГц, 16 бит, 6 канала(ов), AC-3
Субтитры:Russian, English - VobSub

MediaInfo:

Общее
Уникальный идентификатор : 176059067607960012129172170504034906352 (0x8473BE37211B4694861C0819A6B0F0F0)
Полное имя : E:\торрент\When Harry Met Sally(1990) BDRip 720p.mkv
Формат : Matroska
Размер файла : 4,30 Гбайт
Продолжительность : 1 ч. 35 м.
Общий поток : 6442 Кбит/сек
Дата кодирования : UTC 2011-04-16 07:56:40
Программа кодирования : mkvmerge v4.6.0 ('Still Crazy After All These Years') built on Mar 10 2011 02:50:32
Библиотека кодирования : libebml v1.2.0 + libmatroska v1.1.0
Видео
Идентификатор : 1
Формат : AVC
Формат/Информация : Advanced Video Codec
Профиль формата : [email protected]
Параметр CABAC формата : Да
Параметр ReFrames формата : 12 кадры
Идентификатор кодека : V_MPEG4/ISO/AVC
Продолжительность : 1 ч. 35 м.
Битрейт : 5989 Кбит/сек
Ширина : 1280 пикс.
Высота : 688 пикс.
Соотношение сторон : 1,860
Частота кадров : 23,976 кадр/сек
Цветовое пространство : YUV
Подвыборка цветности : 4:2:0
Битовая глубина : 8 бит
Тип развёртки : Прогрессивная
Бит/(Пиксели*Кадры) : 0.284
Размер потока : 3,91 Гбайт (91%)
Библиотека кодирования : x264 core 114 r1924 08d04a4
Настройки программы : cabac=1 / ref=12 / deblock=1:-2:-2 / analyse=0x3:0x133 / me=umh / subme=7 / psy=1 / psy_rd=1.00:0.15 / mixed_ref=1 / me_range=32 / chroma_me=1 / trellis=2 / 8x8dct=1 / cqm=0 / deadzone=21,11 / fast_pskip=0 / chroma_qp_offset=-3 / threads=6 / sliced_threads=0 / nr=0 / decimate=1 / interlaced=0 / constrained_intra=0 / bframes=4 / b_pyramid=2 / b_adapt=1 / b_bias=0 / direct=1 / weightb=1 / open_gop=0 / weightp=2 / keyint=250 / keyint_min=24 / scenecut=40 / intra_refresh=0 / rc_lookahead=50 / rc=2pass / mbtree=1 / bitrate=5989 / ratetol=1.0 / qcomp=0.80 / qpmin=10 / qpmax=51 / qpstep=4 / cplxblur=20.0 / qblur=0.5 / ip_ratio=1.40 / aq=1:1.00
Язык : English
Аудио
Идентификатор : 2
Формат : AC-3
Формат/Информация : Audio Coding 3
Расширение режима : CM (complete main)
Идентификатор кодека : A_AC3
Продолжительность : 1 ч. 35 м.
Вид битрейта : Постоянный
Битрейт : 448 Кбит/сек
Канал(ы) : 6 канала(ов)
Расположение каналов : Front: L C R, Side: L R, LFE
Частота : 48,0 КГц
Битовая глубина : 16 бит
Метод сжатия : С потерями
Размер потока : 306 Мбайт (7%)
Язык : Russian
Текст #1
Идентификатор : 3
Формат : VobSub
Режим смешивания : zlib
Идентификатор кодека : S_VOBSUB
Идентификатор кодека/Информация : The same subtitle format used on DVDs
Язык : Russian
Текст #2
Идентификатор : 4
Формат : VobSub
Режим смешивания : zlib
Идентификатор кодека : S_VOBSUB
Идентификатор кодека/Информация : The same subtitle format used on DVDs
Язык : English
Меню
00:00:00.000 : en:00:00:00.000
00:02:45.916 : en:00:02:45.916
00:10:12.028 : en:00:10:12.028
00:14:18.649 : en:00:14:18.649
00:17:23.960 : en:00:17:23.960
00:23:18.314 : en:00:23:18.314
00:28:34.796 : en:00:28:34.796
00:39:04.133 : en:00:39:04.133
00:43:20.223 : en:00:43:20.223
00:50:27.066 : en:00:50:27.066
00:59:55.300 : en:00:59:55.300
01:06:40.371 : en:01:06:40.371
01:15:11.006 : en:01:15:11.006
01:17:00.574 : en:01:17:00.574
01:21:30.469 : en:01:21:30.469
01:32:04.185 : en:01:32:04.185

Скриншоты

        

_________________
Человек – это канат, натянутый между животным и сверхчеловеком, – канат над пропастью.
В человеке ценно то, что он мост, а не цель. Фридрих Ницше


Last edited by Delia on 2011-08-26 18:39; edited 3 times in total
Other forum [Profile] [PM]
Similar theme
Forum Topic Author Torrent Replies Last Post
./templates/default/images/folder_dl.gif Медицина и Здоровье Анатолий Ситель | Ария для спины. Авторская программа, чтобы никогда не болели суставы (2015) [FB2] moralis
1 | 0

0 | 1416

12

2016-03-11 18:44
moralis Latest
Display posts from previous:    
Reply to topic

The time now is: Today 20:38

All times are GMT + 3 Hours



You cannot post new topics in this forum
You cannot reply to topics in this forum
You cannot edit your posts in this forum
You cannot delete your posts in this forum
You cannot vote in polls in this forum
You cannot attach files in this forum
You cannot download files in this forum