Today is a free download without charge Download

Metallica - Quebec Magnetic [2012, Thrash Metal, BDRip 720p]

Reply to topic
 
Author
Message

Omen ®

Longevity: 8 years 3 months

Posts: 181087

Торрент-статистика

Post 19-Dec-2012 01:24

[Quote]

Metallica - Quebec Magnetic
Год выпуска: 2012
Жанр: Thrash Metal
Продолжительность: 02:14:42
Качество: BDRip 720p
Контейнер: MKV
Видео кодек: MPEG-4 AVC
Аудио кодек: DTS
Видео: 1280x720 / 16:9 / 29.970 fps / ~4187 Kbps
Аудио: English DTS 5.1 / 48 kHz / 1510 kbps / 24 bits
Дополнительно:
http://www.amazon.com/Quebec-Magnetic-Blu-ray-Metallica/dp/B009VL28W2
Since they formed in 1981, Metallica have gone from an underground heavy metal band to one of the most successful acts in the world. Sales of Metallica s nine albums are over 100 million copies worldwide, with over 65 million from North America. In addition, the band has sold over 5 million videos and DVDs throughout their career. They have earned gold and/or platinum certifications in over forty countries. In April of 2009, Metallica was inducted into the Rock and Roll Hall of Fame in their first year of eligibility. Metallica is THE most played artist on rock radio. One out of every twenty songs on rock radio in America today is a Metallica song. Metallica is the fourth largest selling artist in the United States since 1991.

Обложка

Трэклист

1. That Was Just Your Life
2. The End Of The Line
3. The Four Horsemen
4. The Shortest Straw
5. One
6. Broken, Beat & Scarred
7. My Apocalypse
8. Sad But True
9. Welcome Home (Sanitarium)
10. The Judas Kiss
11. The Day That Never Comes
12. Master of Puppets
13. Battery
14. Nothing Else Matters
15. Enter Sandman
16. Killing Time
17. Whiplash
18. Seek & Destroy

Mediainfo

Код:
General
Complete name                    : C:\Metallica.Quebec.Magnetic.2009.720p.MBluRay.x264-LOUNGE.mkv
Format                           : Matroska
File size                        : 5.47 GiB
Duration                         : 2h 14mn
Overall bit rate                 : 5 809 Kbps
Encoded date                     : UTC 2012-12-07 20:15:54
Writing application              : mkvmerge v5.7.0 ('The Whirlwind') built on Jul  8 2012 20:08:51
Writing library                  : libebml v1.2.3 + libmatroska v1.3.0
Video
ID                               : 1
Format                           : AVC
Format/Info                      : Advanced Video Codec
Format profile                   : [email protected]
Format settings, CABAC           : Yes
Format settings, ReFrames        : 5 frames
Muxing mode                      : Container [email protected]
Codec ID                         : V_MPEG4/ISO/AVC
Duration                         : 2h 14mn
Bit rate                         : 4 184 Kbps
Nominal bit rate                 : 4 288 Kbps
Width                            : 1 280 pixels
Height                           : 720 pixels
Display aspect ratio             : 16:9
Frame rate                       : 29.970 fps
Resolution                       : 8 bits
Colorimetry                      : 4:2:0
Scan type                        : Progressive
Bits/(Pixel*Frame)               : 0.151
Stream size                      : 3.94 GiB (72%)
Writing library                  : x264 core 129 r2230 1cffe9f
Encoding settings                : cabac=1 / ref=5 / deblock=1:0:0 / analyse=0x3:0x133 / me=umh / subme=8 / psy=1 / psy_rd=1.00:0.00 / mixed_ref=1 / me_range=16 / chroma_me=1 / trellis=1 / 8x8dct=1 / cqm=0 / deadzone=21,11 / fast_pskip=0 / chroma_qp_offset=-2 / threads=12 / lookahead_threads=2 / sliced_threads=0 / nr=0 / decimate=1 / interlaced=0 / bluray_compat=0 / constrained_intra=0 / bframes=3 / b_pyramid=2 / b_adapt=1 / b_bias=0 / direct=1 / weightb=1 / open_gop=0 / weightp=2 / keyint=250 / keyint_min=25 / scenecut=40 / intra_refresh=0 / rc_lookahead=40 / rc=2pass / mbtree=1 / bitrate=4288 / ratetol=1.0 / qcomp=0.60 / qpmin=0 / qpmax=69 / qpstep=4 / cplxblur=20.0 / qblur=0.5 / ip_ratio=1.40 / aq=1:1.00
Audio
ID                               : 2
Format                           : DTS
Format/Info                      : Digital Theater Systems
Codec ID                         : A_DTS
Duration                         : 2h 14mn
Bit rate mode                    : Constant
Bit rate                         : 1 510 Kbps
Channel(s)                       : 6 channels
Channel positions                : Front: L C R, Side: L R, LFE
Sampling rate                    : 48.0 KHz
Resolution                       : 24 bits
Stream size                      : 1.42 GiB (26%)
Menu
00:00:00.000                     : en:00:00:00.000
00:01:36.096                     : en:00:01:36.096
00:08:44.958                     : en:00:08:44.958
00:16:31.257                     : en:00:16:31.257
00:21:58.784                     : en:00:21:58.784
00:28:08.287                     : en:00:28:08.287
00:36:01.893                     : en:00:36:01.893
00:44:29.167                     : en:00:44:29.167
00:51:12.703                     : en:00:51:12.703
00:57:13.397                     : en:00:57:13.397
01:03:23.500                     : en:01:03:23.500
01:13:12.188                     : en:01:13:12.188
01:21:10.733                     : en:01:21:10.733
01:29:17.319                     : en:01:29:17.319
01:36:23.611                     : en:01:36:23.611
01:42:08.756                     : en:01:42:08.756
01:50:59.119                     : en:01:50:59.119
01:53:53.927                     : en:01:53:53.927
02:00:58.818                     : en:02:00:58.818
02:08:09.782                     : en:02:08:09.782
Other forum [Profile] [PM]
Similar theme
Forum Topic Author Torrent Replies Last Post
./templates/default/images/folder_dl.gif Metal Metallica - Tribut`Em All (1992-2011) [MP3|320 kbps] UndegraundMen
0 | 1

1 | 1545

0

2013-06-14 05:36
Dracula Latest
Display posts from previous:    
Reply to topic

The time now is: Today 21:08

All times are GMT + 3 Hours



You cannot post new topics in this forum
You cannot reply to topics in this forum
You cannot edit your posts in this forum
You cannot delete your posts in this forum
You cannot vote in polls in this forum
You cannot attach files in this forum
You cannot download files in this forum