Today is a free download without charge Download

Muse — Follow Me( Live,Canal+,Le grand journal, la suite,18.12.2012) [2012, Alternative Rock, HDTV 1080i]

Reply to topic
 
Author
Message

Omen ®

Longevity: 8 years 4 months

Posts: 181087

Торрент-статистика

Post 19-Dec-2012 01:24

[Quote]

Muse — Follow Me( Live,Canal+,Le grand journal, la suite,18.12.2012)- Жанр: Alternative Rock
Продолжительность: 00:03:48
Год выпуска: 2012
Качество: HDTV 1080i
Контейнер: TS
Видео кодек: H.264
Аудио кодек: AC3
Видео: H.264; 1920x1080; 11.5 Mbps ; 25.000 fps
Аудио: AC-3; 192 Kbps; 48,0 КГц; 2 ch

Отчёт MediaInfo

Complete name :Muse - Follow Me(C+).tsFormat : MPEG-TSFile size : 336 MiBDuration : 3mn 48sOverall bit rate mode : VariableOverall bit rate : 12.3 Mbps
VideoID : 160 (0xA0)Menu ID : 8801 (0x2261)Format : AVCFormat/Info : Advanced Video CodecFormat profile : [email protected] settings, CABAC : YesFormat settings, ReFrames : 4 framesFormat settings, GOP : M=4, N=24Codec ID : 27Duration : 3mn 48sBit rate : 11.5 MbpsWidth : 1 920 pixelsHeight : 1 080 pixelsDisplay aspect ratio : 16:9Frame rate : 25.000 fpsColor space : YUVChroma subsampling : 4:2:0Bit depth : 8 bitsScan type : MBAFFBits/(Pixel*Frame) : 0.223Stream size : 314 MiB (93%)Color primaries : BT.709Transfer characteristics : BT.709Matrix coefficients : BT.709
AudioID : 82 (0x52)Menu ID : 8801 (0x2261)Format : AC-3Format/Info : Audio Coding 3Mode extension : CM (complete main)Format settings, Endianness : BigCodec ID : 6Duration : 3mn 48sBit rate mode : ConstantBit rate : 192 KbpsChannel(s) : 2 channelsChannel positions : Front: L RSampling rate : 48.0 KHzBit depth : 16 bitsCompression mode : LossyDelay relative to video : 20msStream size : 5.23 MiB (2%)Language : French

Скриншоты

Other forum [Profile] [PM]
Display posts from previous:    
Reply to topic

The time now is: Today 10:47

All times are GMT + 3 Hours



You cannot post new topics in this forum
You cannot reply to topics in this forum
You cannot edit your posts in this forum
You cannot delete your posts in this forum
You cannot vote in polls in this forum
You cannot attach files in this forum
You cannot download files in this forum