Сегодня идет свободное скачивание без начисления Download

Стан Хельсинг / Stan Helsing (Бо Дзенга / Bo Zenga) [2009, США, ужасы, комедия, DVDRip] Dub

Ответить на тему
 
Автор
Сообщение

gdombaev ®

Пол:

Стаж: 8 лет 11 месяцев

Сообщений: 546

Торрент-статистика

Пост 15-Апр-2011 20:41

[Цитировать]

Стан Хельсинг / Stan Helsing Страна: США
Жанр: Ужасы, комедия
Год выпуска: 2009
Продолжительность: 1:28:15
Перевод: Профессиональный (дублированный) [Лицензия]
Режиссер: Бо Дзенга / Bo Zenga
В ролях: Стив Хоуи, Диора Бэрд, Кенан Томпсон, Дези Лайдик, Лесли Нильсен, Кит Дзенга, Даррен Мур, Твэн Холлидэй, Бен Коттон, Трэвис МакДональд.Описание: Жители этого городка давно страдают от нападок монстров. На протяжении многих лет их пугают, убивают… Но вот появился он! Все взоры обращены на него, с надеждой люди ждут помощи от нашего героя. Его фамилия вносит страх и дрожь в ряды злодеев — Хельсинг. Его имя заставляет всех смеяться — Стэн! Ему предстоит встретиться в нечестном бою с шестью самыми известными экранными маньяками и монстрами современности: Кожаное лицо, Фредди Крюгер, Пинхэд, Чаки, Джейсон, Майерс, а так же с вампирами, зомби и жуками-убийцами. Да пребудет с ним сила!..Качество видео: DVDRip
Формат видео: AVI
Видео: 704x368, 25 fps, XviD, 1829 kbps
Аудио: 384 Кбит/сек, 48,0 КГц, 16 бит, 6 каналов, AC-3
IMDB: 3.6 (3 519)
Кinopoisk: 2.7 (2 520)
Семпл: http://multi-up.com/472580

MediaInfo

General
Complete name : C:\Users\Fujitsu\Desktop\stan.helsing.avi
Format : AVI
Format/Info : Audio Video Interleave
File size : 1.37 GiB
Duration : 1h 28mn
Overall bit rate : 2 222 Kbps
Writing application : VirtualDubMod 1.5.10.2 (build 2540/release)
Writing library : VirtualDubMod build 2540/release
Video
ID : 0
Format : MPEG-4 Visual
Format profile : Advanced [email protected]
Format settings, BVOP : Yes
Format settings, QPel : No
Format settings, GMC : No warppoints
Format settings, Matrix : Default (H.263)
Muxing mode : Packed bitstream
Codec ID : XVID
Codec ID/Hint : XviD
Duration : 1h 28mn
Bit rate : 1 829 Kbps
Width : 704 pixels
Height : 368 pixels
Display aspect ratio : 1.913
Frame rate : 25.000 fps
Color space : YUV
Chroma subsampling : 4:2:0
Bit depth : 8 bits
Scan type : Progressive
Bits/(Pixel*Frame) : 0.282
Stream size : 1.13 GiB (82%)
Writing library : XviD 1.0.3 (UTC 2004-12-20)
Audio
ID : 1
Format : AC-3
Format/Info : Audio Coding 3
Mode extension : CM (complete main)
Codec ID : 2000
Duration : 1h 28mn
Bit rate mode : Constant
Bit rate : 384 Kbps
Channel(s) : 6 channels
Channel positions : Front: L C R, Side: L R, LFE
Sampling rate : 48.0 KHz
Stream size : 242 MiB (17%)
Alignment : Split accross interleaves
Interleave, duration : 40 ms (1.00 video frame)
Interleave, preload duration : 500 ms

Скриншот c названием фильма

 

Скриншоты

    

_________________
Все чаще слова "юзай поиск" приобретают смысл "иди в жопу"....


Последний раз редактировалось: gdombaev (2011-04-15 21:03), всего редактировалось 5 раз(а)
Вне форума [Профиль] [ЛС]
Показать сообщения:    
Ответить на тему

Текущее время: Сегодня 20:57

Часовой пояс: GMT + 3



Вы не можете начинать темы
Вы не можете отвечать на сообщения
Вы не можете редактировать свои сообщения
Вы не можете удалять свои сообщения
Вы не можете голосовать в опросах
Вы не можете прикреплять файлы к сообщениям
Вы не можете скачивать файлы