Today is a free download without charge Download

Декоративные штукатурки и краски серии EFFEKT-DESIGN [2005, DVDRip, RUS] (Видеоурок)

Reply to topic
 
Author
Message

Omen ®

Longevity: 7 years 10 months

Posts: 181087

Торрент-статистика

Post 17-Dec-2012 19:24

[Quote]

Декоративные штукатурки и краски серии EFFEKT-DESIGN
Страна: Германия
Тип раздаваемого материала: Видеоурок
Продолжительность: 01:18:20
Год выпуска: 2005
Язык: Русский
Перевод: Не требуется
Описание: Наглядное пособие по нанесению декоративных штукатурок и красок серии EFFEKT-DESIGN. Показано творческое оформление поверхностей, различные варианты цветового решения интерьера.
Пособие на русском языке!
Доп. информация:
Video ID : 0
Format : AVC
Format/Info : Advanced Video Codec
Format profile : [email protected]
Format settings, CABAC : Yes
Format settings, ReFrames : 1 frame
Codec ID : H264
Duration : 4mn 32s
Bit rate : 789 Kbps
Width : 768 pixels
Height : 576 pixels
Display aspect ratio : 4:3
Frame rate : 25.000 fps
Color space : YUV
Chroma subsampling : 4:2:0
Bit depth : 8 bits
Scan type : Progressive
Bits/(Pixel*Frame) : 0.071
Stream size : 25.6 MiB (88%)
Audio
ID : 1
Format : MPEG Audio
Format version : Version 1
Format profile : Layer 3
Codec ID : 55
Codec ID/Hint : MP3
Duration : 4mn 32s
Bit rate mode : Constant
Bit rate : 96.0 Kbps
Channel(s) : 2 channels
Sampling rate : 44.1 KHz
Compression mode : Lossy
Stream size : 3.12 MiB (11%)
Alignment : Split accross interleaves
Interleave, duration : 80 ms (2.00 video frames)
Writing library : LAMELAME_MAJOR_VERSI
Качество: DVDRip
Формат: AVI
Видео кодек: H.264
Аудио кодек: MP3
Системные требования:
Видео: Format/Info : Advanced Video Codec Format profile : [email protected]
Аудио: Format : MPEG Audio Format version : Version 1 Format profile : Layer 3

Скриншоты



Other forum [Profile] [PM]
Similar theme
Forum Topic Author Torrent Replies Last Post
./templates/default/images/folder_dl.gif Обучающее видео Мастер-класс по нанесению декоративных покрытий "Оптимист" [Строительство, DVDRip, RUS] (Видеоурок) Omen
1 | 0

0 | 562

1

2012-12-17 19:24
Omen Latest
./templates/default/images/folder_dl.gif Обучающее видео Декоративные страсти с Марат Ка (Россия) [2007 г., Обучающее видео, TVRip] Omen
1 | 0

0 | 514

2

2012-12-17 19:28
Omen Latest
Display posts from previous:    
Reply to topic

The time now is: Today 19:23

All times are GMT + 3 Hours



You cannot post new topics in this forum
You cannot reply to topics in this forum
You cannot edit your posts in this forum
You cannot delete your posts in this forum
You cannot vote in polls in this forum
You cannot attach files in this forum
You cannot download files in this forum