Today is a free download without charge Download

Как сделать гидравлический расчет отопления / Как сделать гидравлический расчет отопления [2011, DVDRip, RUS] (Видеоурок)

Reply to topic
 
Author
Message

Omen ®

Longevity: 7 years 10 months

Posts: 181087

Торрент-статистика

Post 17-Dec-2012 19:24

[Quote]

Как сделать гидравлический расчет отопления / Как сделать гидравлический расчет отопления
Страна: Россия
Тип раздаваемого материала: Видеоурок
Год выпуска: 2011
Продолжительность: 00:43:28
Язык: Русский
Перевод: Не требуется
Описание: Гидравлический расчет систем водяного отопления предназначен для обоснования выбора таких диаметров всех участков труб, при которых в каждом циркуляционном кольце давления для перемещения расчетных количеств теплоносителя в единицу времени будут превышать на 10 % потери давления от гидравлического сопротивления.
Качество: DVDRip
Формат: AVI
Видео кодек: XviD
Аудио кодек: AC3
Видео: 1256 Кбит/с, 320x240
Аудио: 2 ch, 85 Кбит/с

MediaInfo

General
Complete name : otoplenie.avi
Format : AVI
Format/Info : Audio Video Interleave
File size : 592 MiB
Duration : 43mn 28s
Overall bit rate : 1 903 Kbps
Writing application : Lavf52.14.0
Writing library : VirtualDub build 32507/release
Video
ID : 0
Format : MPEG-4 Visual
Codec ID : DIV3
Codec ID/Hint : DivX 3 Low
Duration : 43mn 28s
Bit rate : 480 Kbps
Width : 320 pixels
Height : 240 pixels
Display aspect ratio : 4:3
Frame rate : 29.970 fps
Color space : YUV
Chroma subsampling : 4:2:0
Bit depth : 8 bits
Compression mode : Lossy
Bits/(Pixel*Frame) : 0.209
Stream size : 149 MiB (25%)
Audio
ID : 1
Format : PCM
Format settings, Endianness : Little
Format settings, Sign : Signed
Codec ID : 1
Codec ID/Hint : Microsoft
Duration : 43mn 28s
Bit rate mode : Constant
Bit rate : 1 411.2 Kbps
Channel(s) : 2 channels
Sampling rate : 44.1 KHz
Bit depth : 16 bits
Stream size : 439 MiB (74%)
Interleave, duration : 33 ms (1.00 video frame)
Interleave, preload duration : 500 ms

Скриншоты

Other forum [Profile] [PM]
Display posts from previous:    
Reply to topic

The time now is: Today 21:43

All times are GMT + 3 Hours



You cannot post new topics in this forum
You cannot reply to topics in this forum
You cannot edit your posts in this forum
You cannot delete your posts in this forum
You cannot vote in polls in this forum
You cannot attach files in this forum
You cannot download files in this forum