Today is a free download without charge Download

Paul McCartney - Saturday Night Live 15.12.2012 [2012 г., Rock, HDTV 1080i]

Reply to topic
 
Author
Message

Omen ®

Longevity: 8 years 3 months

Posts: 181087

Торрент-статистика

Post 17-Dec-2012 17:16

[Quote]

Paul McCartney - Saturday Night Live 15.12.2012-
Жанр: Rock
Продолжительность: 18:12
Год выпуска: 2010-Описание: Выступление Пола Маккартни на шоу "Субботним вечером в прямом эфире" американского телеканала NBC 15 декабря 2012 г.
Треклист:
1. My Valentine (feat. Joe Walsh)
2. Cut Me Some Slack (feat. Nirvana)
3. Simply Having a Wonderful Christmas time-Качество: HDTV
Контейнер: TS
Видео кодек: MPEG2
Аудио кодек: AC3
Видео: 1920x1080 / 16:9 / 14.3 Mbps / 29.970 fps
Аудио: 384 Kbps / 48.0 KHz / 5.1 Ch

MediaInfo

Код:
General
ID                                       : 1 (0x1)
Complete name                            : E:\Paul McCartney SNL 15.12.12 HDTV 1080i\Paul McCartney My Valentine SNL 15.12.12. HDTV 1080i.ts
Format                                   : MPEG-TS
File size                                : 412 MiB
Duration                                 : 3mn 41s
Overall bit rate mode                    : Variable
Overall bit rate                         : 15.6 Mbps
Video
ID                                       : 17 (0x11)
Menu ID                                  : 1 (0x1)
Format                                   : MPEG Video
Format version                           : Version 2
Format profile                           : [email protected]
Format settings, BVOP                    : Yes
Format settings, Matrix                  : Custom
Codec ID                                 : 2
Duration                                 : 3mn 41s
Bit rate mode                            : Variable
Bit rate                                 : 14.3 Mbps
Maximum bit rate                         : 14.6 Mbps
Width                                    : 1 920 pixels
Height                                   : 1 080 pixels
Display aspect ratio                     : 16:9
Active Format Description                : Full frame 16:9 image
Frame rate                               : 29.970 fps
Color space                              : YUV
Chroma subsampling                       : 4:2:0
Bit depth                                : 8 bits
Scan type                                : Interlaced
Scan order                               : Top Field First
Compression mode                         : Lossy
Bits/(Pixel*Frame)                       : 0.230
Stream size                              : 376 MiB (91%)
Color primaries                          : BT.709
Transfer characteristics                 : BT.709
Matrix coefficients                      : BT.709
Audio #1
ID                                       : 20 (0x14)
Menu ID                                  : 1 (0x1)
Format                                   : AC-3
Format/Info                              : Audio Coding 3
Mode extension                           : CM (complete main)
Format settings, Endianness              : Big
Codec ID                                 : 129
Duration                                 : 3mn 41s
Bit rate mode                            : Constant
Bit rate                                 : 384 Kbps
Channel(s)                               : 6 channels
Channel positions                        : Front: L C R, Side: L R, LFE
Sampling rate                            : 48.0 KHz
Bit depth                                : 16 bits
Compression mode                         : Lossy
Delay relative to video                  : 4ms
Stream size                              : 10.1 MiB (2%)
Language                                 : English
Audio #2
ID                                       : 21 (0x15)
Menu ID                                  : 1 (0x1)
Format                                   : AC-3
Format/Info                              : Audio Coding 3
Mode extension                           : VI (visually impaired)
Format settings, Endianness              : Big
Codec ID                                 : 129
Duration                                 : 3mn 41s
Bit rate mode                            : Constant
Bit rate                                 : 192 Kbps
Channel(s)                               : 2 channels
Channel positions                        : Front: L R
Sampling rate                            : 48.0 KHz
Bit depth                                : 16 bits
Compression mode                         : Lossy
Delay relative to video                  : 18ms
Stream size                              : 5.06 MiB (1%)
Language                                 : Spanish
Text #1
ID                                       : 17 (0x11)-CC1
Menu ID                                  : 1 (0x1)
Format                                   : EIA-608
Muxing mode                              : A/53 / DTVCC Transport
Muxing mode, more info                   : Muxed in Video #1
Duration                                 : 3mn 41s
Bit rate mode                            : Constant
Stream size                              : 0.00 Byte (0%)
Text #2
ID                                       : 17 (0x11)-1
Menu ID                                  : 1 (0x1)
Format                                   : EIA-708
Muxing mode                              : A/53 / DTVCC Transport
Muxing mode, more info                   : Muxed in Video #1
Duration                                 : 3mn 41s
Bit rate mode                            : Constant
Stream size                              : 0.00 Byte (0%)
Text #3
ID                                       : 17 (0x11)-2
Menu ID                                  : 1 (0x1)
Format                                   : EIA-708
Muxing mode                              : A/53 / DTVCC Transport
Muxing mode, more info                   : Muxed in Video #1
Duration                                 : 3mn 41s
Bit rate mode                            : Constant
Stream size                              : 0.00 Byte (0%)

Скриншоты



Other forum [Profile] [PM]
Display posts from previous:    
Reply to topic

The time now is: Today 17:08

All times are GMT + 3 Hours



You cannot post new topics in this forum
You cannot reply to topics in this forum
You cannot edit your posts in this forum
You cannot delete your posts in this forum
You cannot vote in polls in this forum
You cannot attach files in this forum
You cannot download files in this forum