Today is a free download without charge Download

The Tea Party - The Reformation Tour - Live in Australia [2012, Rock, Blu-ray]

Reply to topic
 
Author
Message

Omen ®

Longevity: 8 years 3 months

Posts: 181087

Торрент-статистика

Post 17-Dec-2012 12:00

[Quote]

The Tea Party - The Reformation Tour - Live in Australia- - Оригинальное название: The Tea Party - The Reformation Tour - Live in Australia
Жанр: rock, hard rock, progressive rock
Продолжительность: 02:13:42
Год выпуска: 2012
Выпущено: US | Linus Entertainment
Исполнители: Jeff Burrows - drums, percussion, backing vocals; Stuart Chatwood - bass, keyboards, harmonium, mandolin, acoustic guitar, backing vocals; Jeff Martin - guitar, acoustic guitar, theremin, esraj, oud, bowed guitar, lead vocals

• Reformed Canadian rock trio The Tea Party to release live album and concert DVD on November 27! Live From Australia sonically documents their 2012 summer tour through Australia following their return to the stage.
• Seminal Canadian prog–rock pioneers The Tea Party have sold over 2 million records worldwide, including 4 double–platinum awards, 1 platinum and 4 gold albums in Canada over the span of their career. In addition they have toured Australia, the U.S.A. and Europe, received 13 JUNO Award nominations and have garnished 22 MuchMusic Video Award nominations including three People's Choice Awards for Favourite Music Video.
• The band took an indefinite hiatus in 2005, and in the time since their reputations and notoriety as the bext live rock trio since Rush built up demand for performances and convinced the band to re–unite in 2011, whereupon their appearance at festivals in Canada and Australia fueled fan demand for a live album and DVD, something the band had never released previously.
• Recorded on their 2012 Australian tour, the recordings showcase a band bursting with renewed energy while delivering a greatest hits audio/video release that every Tea Party fan will insist be part of their music collection.
• The album and concert video is the first released to contain all of the hits including fan favourites like "Save Me", "Sister Awake", "The River", "Heaven Coming Down" and "Temptation" in one place. The Tea Party has perfected the art of mixing rock and world music, infusing blues and progressive rock with Indian and Middle Eastern Influences.
Цитата:
-Треклист:
1. The River
2. The Bazaar
3. Lullaby
4. Psychopomp
5. Correspondences
6. The Messenger
7. Fire In The Head
8. The Badger
9. Shadows On The Mountainside
10. Sun Going Down
11. Halycon Days
12. Save Me
13. Heaven Coming Down
14. Release
15. Temptation
16. Winter Solstice
17. Sister Awake
Бонус:
Acoustic set
(recorded live at the Cherry Bar, Melbourne) (720p, DTS-HD MA 2.0):
1. Sun Going Down
2. The Messenger
3. Requiem
4. The Bazaar
-
-Качество: Blu-ray
Контейнер: BDMV
Видео кодек: AVC
Аудио кодек: DTS
Видео: MPEG-4 AVC 31994 kbps 1920*1080p / 23,976 fps / 16:9 / High Profile 4.1
Аудио: English DTS-HD MA 5.1 / 48 kHz / 4910 kbps / 24-bit (DTS Core: 5.1 / 48 kHz / 1509 kbps / 24-bit)
-

BDInfo

Disc Title: The Tea Party_HDGEEKDisc Size: 45 060 516 127 bytesProtection: AACSBD-Java: YesBDInfo: 0.5.8
Notes:
BDINFO HOME: Cinema Squid http://www.cinemasquid.com/blu-ray/tools/bdinfo
INCLUDES FORUMS REPORT FOR: AVS Forum Blu-ray Audio and Video Specifications Thread http://www.avsforum.com/avs-vb/showthread.php?t=1155731
********************PLAYLIST: 01002.MPLS********************
Код:
Total   Video
Title                                                           Codec   Length  Movie Size      Disc Size       Bitrate Bitrate Main Audio Track                          Secondary Audio Track
-----                                                           ------  ------- --------------  --------------  ------- ------- ------------------                        ---------------------
01002.MPLS                                                      AVC     2:13:42 38 944 763 904  45 060 516 127  38,84   31,99   DTS-HD Master 5.1 4910Kbps (48kHz/24-bit)
Код:
DISC INFO:
Disc Title:     The Tea Party_HDGEEK
Disc Size:      45 060 516 127 bytes
Protection:     AACS
BD-Java:        Yes
BDInfo:         0.5.8
PLAYLIST REPORT:
Name:                   01002.MPLS
Length:                 2:13:42.222 (h:m:s.ms)
Size:                   38 944 763 904 bytes
Total Bitrate:          38,84 Mbps
VIDEO:
Codec                   Bitrate             Description
-----                   -------             -----------
MPEG-4 AVC Video        31994 kbps          1080p / 23,976 fps / 16:9 / High Profile 4.1
AUDIO:
Codec                           Language        Bitrate         Description
-----                           --------        -------         -----------
DTS-HD Master Audio             English         4910 kbps       5.1 / 48 kHz / 4910 kbps / 24-bit (DTS Core: 5.1 / 48 kHz / 1509 kbps / 24-bit)
FILES:
Name            Time In         Length          Size            Total Bitrate
----            -------         ------          ----            -------------
00003.M2TS      0:00:00.000     2:13:42.222     38 944 763 904  38 837
CHAPTERS:
Number          Time In         Length          Avg Video Rate  Max 1-Sec Rate  Max 1-Sec Time  Max 5-Sec Rate  Max 5-Sec Time  Max 10Sec Rate  Max 10Sec Time  Avg Frame Size  Max Frame Size  Max Frame Time
------          -------         ------          --------------  --------------  --------------  --------------  --------------  --------------  --------------  --------------  --------------  --------------
1               0:00:00.000     0:10:24.915     33 003 kbps     43 286 kbps     00:08:58.496    37 605 kbps     00:10:16.574    37 092 kbps     00:07:31.242    172 049 bytes   411 412 bytes   00:07:04.715
2               0:10:24.915     0:07:01.963     32 346 kbps     42 263 kbps     00:14:11.183    37 480 kbps     00:16:50.843    37 076 kbps     00:16:45.713    168 638 bytes   414 223 bytes   00:17:18.620
3               0:17:26.879     0:08:06.486     32 887 kbps     40 895 kbps     00:24:08.238    37 318 kbps     00:24:39.853    36 994 kbps     00:22:29.639    171 456 bytes   363 302 bytes   00:24:32.220
4               0:25:33.365     0:07:47.800     34 355 kbps     41 486 kbps     00:31:45.194    37 221 kbps     00:30:19.984    37 023 kbps     00:30:14.896    179 110 bytes   327 478 bytes   00:31:04.279
5               0:33:21.165     0:10:07.356     32 063 kbps     41 486 kbps     00:41:47.129    37 352 kbps     00:42:05.397    36 957 kbps     00:35:36.801    167 161 bytes   310 364 bytes   00:38:11.330
6               0:43:28.522     0:05:07.390     31 003 kbps     41 868 kbps     00:48:13.432    37 363 kbps     00:46:33.832    37 048 kbps     00:46:28.827    161 637 bytes   319 041 bytes   00:48:14.057
7               0:48:35.913     0:06:51.828     30 792 kbps     42 898 kbps     00:53:25.952    37 777 kbps     00:53:21.865    36 938 kbps     00:51:39.554    160 534 bytes   479 485 bytes   00:55:10.348
8               0:55:27.741     0:06:14.791     31 601 kbps     37 609 kbps     01:01:01.407    36 978 kbps     00:57:36.619    36 861 kbps     00:57:36.619    164 753 bytes   291 935 bytes   00:58:16.618
9               1:01:42.532     0:06:23.383     30 038 kbps     38 135 kbps     01:06:07.380    36 962 kbps     01:04:56.392    36 844 kbps     01:04:51.596    156 607 bytes   301 632 bytes   01:06:08.214
10              1:08:05.915     0:12:02.012     34 571 kbps     40 914 kbps     01:14:25.210    37 395 kbps     01:14:31.175    36 972 kbps     01:18:58.775    180 238 bytes   325 293 bytes   01:09:25.411
11              1:20:07.928     0:07:42.003     31 825 kbps     40 175 kbps     01:25:14.692    37 426 kbps     01:25:10.730    37 022 kbps     01:25:05.725    165 923 bytes   327 004 bytes   01:22:56.888
12              1:27:49.931     0:11:59.969     30 438 kbps     40 301 kbps     01:33:53.878    37 492 kbps     01:30:42.061    37 118 kbps     01:30:37.014    158 688 bytes   354 208 bytes   01:33:30.563
13              1:39:49.900     0:05:10.393     31 909 kbps     42 264 kbps     01:42:17.589    37 597 kbps     01:42:23.971    37 118 kbps     01:44:21.630    166 360 bytes   349 525 bytes   01:42:28.684
14              1:45:00.294     0:07:53.639     30 835 kbps     38 934 kbps     01:46:59.162    37 153 kbps     01:45:17.644    36 965 kbps     01:45:12.597    160 758 bytes   564 856 bytes   01:45:54.973
15              1:52:53.933     0:07:49.010     30 553 kbps     41 987 kbps     01:55:42.393    37 640 kbps     01:57:07.478    37 053 kbps     01:54:06.756    159 290 bytes   421 655 bytes   01:57:59.322
16              2:00:42.944     0:11:53.879     34 340 kbps     41 207 kbps     02:11:35.262    37 519 kbps     02:11:31.258    37 115 kbps     02:11:26.003    179 031 bytes   413 684 bytes   02:11:25.294
17              2:12:36.823     0:01:03.563     5 244 kbps      29 064 kbps     02:12:36.907    19 777 kbps     02:12:36.823    11 923 kbps     02:12:36.823    27 342 bytes    246 660 bytes   02:12:37.366
18              2:13:40.387     0:00:01.835     3 889 kbps      6 672 kbps      02:13:41.179    0 kbps          00:00:00.000    0 kbps          00:00:00.000    20 748 bytes    192 901 bytes   02:13:42.139
STREAM DIAGNOSTICS:
File            PID             Type            Codec           Language                Seconds                 Bitrate                 Bytes           Packets
----            ---             ----            -----           --------                --------------          --------------          -------------   -----
00003.M2TS      4113 (0x1011)   0x1B            AVC                                     8022,056                31 994                  32 082 412 404  174 473 449
00003.M2TS      4352 (0x1100)   0x86            DTS-HD MA       eng (English)           8022,056                4 910                   4 923 290 060   28 007 347
********************PLAYLIST: 01003.MPLS********************
Код:
Total   Video
Title                                                           Codec   Length  Movie Size      Disc Size       Bitrate Bitrate Main Audio Track                          Secondary Audio Track
-----                                                           ------  ------- --------------  --------------  ------- ------- ------------------                        ---------------------
01003.MPLS                                                      AVC     0:10:24 2 218 358 784   45 060 516 127  28,40   24,68   DTS-HD Master 2.0 2215Kbps (48kHz/24-bit)
Код:
DISC INFO:
Disc Title:     The Tea Party_HDGEEK
Disc Size:      45 060 516 127 bytes
Protection:     AACS
BD-Java:        Yes
BDInfo:         0.5.8
PLAYLIST REPORT:
Name:                   01003.MPLS
Length:                 0:10:24.999 (h:m:s.ms)
Size:                   2 218 358 784 bytes
Total Bitrate:          28,40 Mbps
VIDEO:
Codec                   Bitrate             Description
-----                   -------             -----------
MPEG-4 AVC Video        24683 kbps          720p / 23,976 fps / 16:9 / High Profile 4.1
AUDIO:
Codec                           Language        Bitrate         Description
-----                           --------        -------         -----------
DTS-HD Master Audio             English         2215 kbps       2.0 / 48 kHz / 2215 kbps / 24-bit (DTS Core: 2.0 / 48 kHz / 1509 kbps / 24-bit)
FILES:
Name            Time In         Length          Size            Total Bitrate
----            -------         ------          ----            -------------
00004.M2TS      0:00:00.000     0:10:24.999     2 218 358 784   28 395
CHAPTERS:
Number          Time In         Length          Avg Video Rate  Max 1-Sec Rate  Max 1-Sec Time  Max 5-Sec Rate  Max 5-Sec Time  Max 10Sec Rate  Max 10Sec Time  Avg Frame Size  Max Frame Size  Max Frame Time
------          -------         ------          --------------  --------------  --------------  --------------  --------------  --------------  --------------  --------------  --------------  --------------
1               0:00:00.000     0:10:21.996     24 755 kbps     38 651 kbps     00:00:29.988    37 251 kbps     00:00:48.798    36 993 kbps     00:00:43.793    129 055 bytes   417 920 bytes   00:00:39.914
2               0:10:21.996     0:00:03.003     9 667 kbps      18 975 kbps     00:10:22.121    0 kbps          00:00:00.000    0 kbps          00:00:00.000    51 110 bytes    310 560 bytes   00:10:22.246
STREAM DIAGNOSTICS:
File            PID             Type            Codec           Language                Seconds                 Bitrate                 Bytes           Packets
----            ---             ----            -----           --------                --------------          --------------          -------------   -----
00004.M2TS      4113 (0x1011)   0x1B            AVC                                     624,874                 24 688                  1 928 355 649   10 488 969
00004.M2TS      4352 (0x1100)   0x86            DTS-HD MA       eng (English)           624,874                 2 215                   173 028 008     1 037 165
********************PLAYLIST: 01006.MPLS********************
Код:
Total   Video
Title                                                           Codec   Length  Movie Size      Disc Size       Bitrate Bitrate Main Audio Track                          Secondary Audio Track
-----                                                           ------  ------- --------------  --------------  ------- ------- ------------------                        ---------------------
01006.MPLS                                                      AVC     0:06:32 1 391 566 848   45 060 516 127  28,36   24,68   DTS-HD Master 2.0 2182Kbps (48kHz/24-bit)
Код:
DISC INFO:
Disc Title:     The Tea Party_HDGEEK
Disc Size:      45 060 516 127 bytes
Protection:     AACS
BD-Java:        Yes
BDInfo:         0.5.8
PLAYLIST REPORT:
Name:                   01006.MPLS
Length:                 0:06:32.475 (h:m:s.ms)
Size:                   1 391 566 848 bytes
Total Bitrate:          28,36 Mbps
VIDEO:
Codec                   Bitrate             Description
-----                   -------             -----------
MPEG-4 AVC Video        24684 kbps          720p / 23,976 fps / 16:9 / High Profile 4.1
AUDIO:
Codec                           Language        Bitrate         Description
-----                           --------        -------         -----------
DTS-HD Master Audio             English         2182 kbps       2.0 / 48 kHz / 2182 kbps / 24-bit (DTS Core: 2.0 / 48 kHz / 1509 kbps / 24-bit)
FILES:
Name            Time In         Length          Size            Total Bitrate
----            -------         ------          ----            -------------
00007.M2TS      0:00:00.000     0:06:32.475     1 391 566 848   28 365
CHAPTERS:
Number          Time In         Length          Avg Video Rate  Max 1-Sec Rate  Max 1-Sec Time  Max 5-Sec Rate  Max 5-Sec Time  Max 10Sec Rate  Max 10Sec Time  Avg Frame Size  Max Frame Size  Max Frame Time
------          -------         ------          --------------  --------------  --------------  --------------  --------------  --------------  --------------  --------------  --------------  --------------
1               0:00:00.000     0:06:29.972     24 755 kbps     39 833 kbps     00:00:28.111    36 525 kbps     00:00:25.150    33 247 kbps     00:00:58.099    129 046 bytes   456 626 bytes   00:00:29.320
2               0:06:29.972     0:00:02.502     13 624 kbps     17 212 kbps     00:06:30.765    0 kbps          00:00:00.000    0 kbps          00:00:00.000    72 231 bytes    333 827 bytes   00:06:31.891
STREAM DIAGNOSTICS:
File            PID             Type            Codec           Language                Seconds                 Bitrate                 Bytes           Packets
----            ---             ----            -----           --------                --------------          --------------          -------------   -----
00007.M2TS      4113 (0x1011)   0x1B            AVC                                     392,392                 24 689                  1 210 971 143   6 586 878
00007.M2TS      4352 (0x1100)   0x86            DTS-HD MA       eng (English)           392,392                 2 183                   107 055 536     643 374
********************PLAYLIST: 01004.MPLS********************
Код:
Total   Video
Title                                                           Codec   Length  Movie Size      Disc Size       Bitrate Bitrate Main Audio Track                          Secondary Audio Track
-----                                                           ------  ------- --------------  --------------  ------- ------- ------------------                        ---------------------
01004.MPLS                                                      AVC     0:06:01 1 277 884 416   45 060 516 127  28,28   24,68   DTS-HD Master 2.0 2106Kbps (48kHz/24-bit)
Код:
DISC INFO:
Disc Title:     The Tea Party_HDGEEK
Disc Size:      45 060 516 127 bytes
Protection:     AACS
BD-Java:        Yes
BDInfo:         0.5.8
PLAYLIST REPORT:
Name:                   01004.MPLS
Length:                 0:06:01.486 (h:m:s.ms)
Size:                   1 277 884 416 bytes
Total Bitrate:          28,28 Mbps
VIDEO:
Codec                   Bitrate             Description
-----                   -------             -----------
MPEG-4 AVC Video        24684 kbps          720p / 23,976 fps / 16:9 / High Profile 4.1
AUDIO:
Codec                           Language        Bitrate         Description
-----                           --------        -------         -----------
DTS-HD Master Audio             English         2106 kbps       2.0 / 48 kHz / 2106 kbps / 24-bit (DTS Core: 2.0 / 48 kHz / 1509 kbps / 24-bit)
FILES:
Name            Time In         Length          Size            Total Bitrate
----            -------         ------          ----            -------------
00005.M2TS      0:00:00.000     0:06:01.486     1 277 884 416   28 281
CHAPTERS:
Number          Time In         Length          Avg Video Rate  Max 1-Sec Rate  Max 1-Sec Time  Max 5-Sec Rate  Max 5-Sec Time  Max 10Sec Rate  Max 10Sec Time  Avg Frame Size  Max Frame Size  Max Frame Time
------          -------         ------          --------------  --------------  --------------  --------------  --------------  --------------  --------------  --------------  --------------  --------------
1               0:00:00.000     0:05:59.942     24 766 kbps     38 426 kbps     00:00:31.656    37 825 kbps     00:00:27.610    32 991 kbps     00:03:01.890    129 106 bytes   435 079 bytes   00:00:29.279
2               0:05:59.942     0:00:01.543     5 571 kbps      7 610 kbps      00:05:59.942    0 kbps          00:00:00.000    0 kbps          00:00:00.000    29 849 bytes    157 263 bytes   00:06:00.026
STREAM DIAGNOSTICS:
File            PID             Type            Codec           Language                Seconds                 Bitrate                 Bytes           Packets
----            ---             ----            -----           --------                --------------          --------------          -------------   -----
00005.M2TS      4113 (0x1011)   0x1B            AVC                                     361,319                 24 696                  1 115 387 716   6 066 975
00005.M2TS      4352 (0x1100)   0x86            DTS-HD MA       eng (English)           361,319                 2 107                   95 149 692      572 563
********************PLAYLIST: 01005.MPLS********************
Код:
Total   Video
Title                                                           Codec   Length  Movie Size      Disc Size       Bitrate Bitrate Main Audio Track                          Secondary Audio Track
-----                                                           ------  ------- --------------  --------------  ------- ------- ------------------                        ---------------------
01005.MPLS                                                      AVC     0:05:25 1 151 311 872   45 060 516 127  28,32   24,68   DTS-HD Master 2.0 2145Kbps (48kHz/24-bit)
Код:
DISC INFO:
Disc Title:     The Tea Party_HDGEEK
Disc Size:      45 060 516 127 bytes
Protection:     AACS
BD-Java:        Yes
BDInfo:         0.5.8
PLAYLIST REPORT:
Name:                   01005.MPLS
Length:                 0:05:25.199 (h:m:s.ms)
Size:                   1 151 311 872 bytes
Total Bitrate:          28,32 Mbps
VIDEO:
Codec                   Bitrate             Description
-----                   -------             -----------
MPEG-4 AVC Video        24684 kbps          720p / 23,976 fps / 16:9 / High Profile 4.1
AUDIO:
Codec                           Language        Bitrate         Description
-----                           --------        -------         -----------
DTS-HD Master Audio             English         2145 kbps       2.0 / 48 kHz / 2145 kbps / 24-bit (DTS Core: 2.0 / 48 kHz / 1509 kbps / 24-bit)
FILES:
Name            Time In         Length          Size            Total Bitrate
----            -------         ------          ----            -------------
00006.M2TS      0:00:00.000     0:05:25.199     1 151 311 872   28 323
CHAPTERS:
Number          Time In         Length          Avg Video Rate  Max 1-Sec Rate  Max 1-Sec Time  Max 5-Sec Rate  Max 5-Sec Time  Max 10Sec Rate  Max 10Sec Time  Avg Frame Size  Max Frame Size  Max Frame Time
------          -------         ------          --------------  --------------  --------------  --------------  --------------  --------------  --------------  --------------  --------------  --------------
1               0:00:00.000     0:05:22.989     24 781 kbps     42 822 kbps     00:00:30.405    40 053 kbps     00:00:29.029    37 274 kbps     00:00:28.737    129 179 bytes   458 189 bytes   00:00:29.571
2               0:05:22.989     0:00:02.210     10 592 kbps     16 959 kbps     00:05:23.031    0 kbps          00:00:00.000    0 kbps          00:00:00.000    56 283 bytes    340 671 bytes   00:05:23.323
STREAM DIAGNOSTICS:
File            PID             Type            Codec           Language                Seconds                 Bitrate                 Bytes           Packets
----            ---             ----            -----           --------                --------------          --------------          -------------   -----
00006.M2TS      4113 (0x1011)   0x1B            AVC                                     325,075                 24 694                  1 003 418 361   5 457 927
00006.M2TS      4352 (0x1100)   0x86            DTS-HD MA       eng (English)           325,075                 2 146                   87 184 672      524 014

Скриншоты




Thanks to Cisco at HDGeek-
Other forum [Profile] [PM]
Display posts from previous:    
Reply to topic

The time now is: Today 21:23

All times are GMT + 3 Hours



You cannot post new topics in this forum
You cannot reply to topics in this forum
You cannot edit your posts in this forum
You cannot delete your posts in this forum
You cannot vote in polls in this forum
You cannot attach files in this forum
You cannot download files in this forum