Today is a free download without charge Download

Бизнес будущего. Обучающий фильм о рынке FOREX [2009 г., Форекс, DVDRip, RUS] (Видеоурок)

Reply to topic
 
Author
Message

Omen ®

Longevity: 7 years 10 months

Posts: 181087

Торрент-статистика

Post 15-Dec-2012 12:04

[Quote]

Бизнес будущего. Обучающий фильм о рынке FOREX
Год выпуска: 2009
Страна: Россия
Тематика: Форекс
Тип раздаваемого материала: Видеоурок
Продолжительность: 00:56:30
Язык: Русский
Перевод: Не требуется
Описание: Создатели фильма поставили перед собой цель донести до зрителей, что работать на валютном рынке Форекс сможет не только опытный трейдер – обычный человек также может стать частью финансового мира, извлекая из нового интересного дела прибыль и получая от него удовольствие. Отзывы тех, кто уже посмотрел фильм, говорят о том, что цель достигнута и это действительно нужный и полезный источник информации о рынке Форекс, который не оставляет нераскрытым ни один вопрос. Команда молодых креативных профессионалов создала обучающий фильм, который будет полезен как для новичков Форекс, так и для опытных трейдеров. Каждый из разделов фильма – это еще один этап к пониманию сути и особенностей биржевой торговли. Отличительная особенность этого фильма в том, что среди множества обучающих продуктов, которые рассказывают о рынке Форекс, этот проект был сделан с мыслью о тех, кто будет его смотреть, поэтому вся информация изложена на простом и доступном языке. Наглядные примеры, детальные описания, схемы и таблицы – все это делает фильм понятным даже для тех, кто впервые услышал понятие «Форекс». Мы создали этот учебный фильм для Вас, чтобы еще раз напомнить о том, что рынок Форекс – это возможность изменить жизнь к лучшему!
Качество: DVDRip
Формат: AVI
Видео кодек: DivX
Аудио кодек: MP3
Видео: 720x576 (1.25:1), 25 fps, DivX Codec 5.x or 6.x ~1306 kbps avg, 0.13 bit/pixel
Аудио: 48 kHz, MPEG Layer 3, 2 ch, ~192.00 kbps avg

Отчет MediaInfo

General
Complete name : F:\Biznes.buduwego.Obuchajuwij.film.o.rynke.FOREX.2009.DivX.DVDRip.Torrents.ru.avi
Format : AVI
Format/Info : Audio Video Interleave
File size : 533 MiB
Duration : 56mn 30s
Overall bit rate : 1 320 Kbps
Video
ID : 0
Format : MPEG-4 Visual
Format profile : [email protected]
Format settings, BVOP : No
Format settings, QPel : No
Format settings, GMC : No warppoints
Format settings, Matrix : Default (H.263)
Codec ID : DX50
Codec ID/Hint : DivX 5
Duration : 56mn 30s
Bit rate : 1 115 Kbps
Width : 720 pixels
Height : 576 pixels
Display aspect ratio : 5:4
Frame rate : 25.000 fps
Standard : PAL
Resolution : 8 bits
Colorimetry : 4:2:0
Scan type : Progressive
Bits/(Pixel*Frame) : 0.108
Stream size : 450 MiB (84%)
Writing library : Lavc52.32.0
Audio
ID : 1
Format : MPEG Audio
Format version : Version 1
Format profile : Layer 3
Codec ID : 55
Codec ID/Hint : MP3
Duration : 56mn 29s
Bit rate mode : Constant
Bit rate : 192 Kbps
Channel(s) : 2 channels
Sampling rate : 48.0 KHz
Stream size : 77.6 MiB (15%)
Alignment : Split accross interleaves
Interleave, duration : 24 ms (0.60 video frame)

Скриншоты


Скринлисты

Other forum [Profile] [PM]
Similar theme
Forum Topic Author Torrent Replies Last Post
./templates/default/images/folder_dl.gif Обучающее видео Обучение Бизнесу с Китаем От 100$ к 10.000$ за 2 месяца коучинг 10.0 [2015, Начало бизнеса, RUS] (Видеоурок) Omen
1 | 0

1 | 2837

44

2015-04-05 22:48
Travnik Latest
./templates/default/images/folder_dl.gif Обучающее видео Как я зарабатываю в интернете от 1800 руб в день / Как я зарабатываю в интернете от 1800 руб в день [2016, Готовый бизнес, DVDRip, RUS] (Видеоурок) Omen
1 | 0

0 | 802

2

2016-01-05 21:00
Omen Latest
./templates/default/images/folder_dl.gif Обучающее видео Бизнес Молодость | Миллион за сто [2015, Бизнес, RUS] (Видеоурок) Omen
0 | 1

0 | 1469

4

2016-08-14 01:01
Omen Latest
Display posts from previous:    
Reply to topic

The time now is: Today 16:05

All times are GMT + 3 Hours



You cannot post new topics in this forum
You cannot reply to topics in this forum
You cannot edit your posts in this forum
You cannot delete your posts in this forum
You cannot vote in polls in this forum
You cannot attach files in this forum
You cannot download files in this forum