Today is a free download without charge Download

Оборотень: Зверь среди нас / Werewolf: The Beast Among Us/ (Жанр: Ужасы, Триллер)(Режиссер: Луи Морно / Louis Morneau)(2012) [1080p] BDRip

Reply to topic
 
Author
Message

KirovSOFT ®

Gender:

Longevity: 9 years

Posts: 998

Location: Кировская область -Оричи

Торрент-статистика

Post 15-Dec-2012 10:20

[Quote]

Оборотень: Зверь среди нас / Werewolf: The Beast Among Us (2012) BDRip Русское название: Оборотень: Зверь среди нас
Оригинальное название: Werewolf: The Beast Among Us
Выпущено: США, Universal 1440 Entertainment
Год выпуска: 2012
Жанр: Ужасы, Триллер
Описание фильма:
Действие фильма разворачивается в небольшой деревушке девятнадцатого века. Молодой человек, изучающий врачебное дело под руководством местного доктора, решает вступить в ряды охотников за оборотнями, когда жители деревни начинают гибнуть один за другим от лап неведомого зверя. Кто он, этот монстр? Один из жителей деревни или нечто совершенно неведомое? Человек днём, чудовище ночью.
Режиссер: Луи Морно / Louis Morneau
Актеры: Стивен Бауэр, Эд Куинн, Ниа Пиплз, Стивен Ри, Золтан Бутуч, Рэйчел ДиПилло, Ана Улару, Адам Кроусделл, Гай Уилсон, Разван Георгиу и др.
Продолжительность: 01:33:23
Перевод: Профессиональный |полное дублирование|
Субтитры: Русские, английские

Видеокодек: MPEG-4 AVC/H.264
Битрейт видео: ~10.4 Mbps
Размер кадра: 1920x1080p
Качество видео: BDRip
Аудио 1: Русский AC3, 6 ch, 384 Кбит/c
Аудио 2: Aнглийский DTS, 6 ch, 1510 Кбит/c

MediaInfo:

Код:
General
Complete name                    : O:\Oboroten 2012.mkv
Format                           : Matroska
File size                        : 8.16 GiB
Duration                         : 1h 33mn
Overall bit rate                 : 12.5 Mbps
Encoded date                     : UTC 2012-12-12 20:12:00
Writing application              : mkvmerge v4.9.1 ('Ich will') built on Sep 21 2011 17:48:11
Writing library                  : libebml v1.2.1 + libmatroska v1.2.0
Video
ID                               : 1
Format                           : AVC
Format/Info                      : Advanced Video Codec
Format profile                   : [url=mailto:[email protected]][email protected][/url]
Format settings, CABAC           : Yes
Format settings, ReFrames        : 4 frames
Muxing mode                      : Container [email protected]
Codec ID                         : V_MPEG4/ISO/AVC
Duration                         : 1h 33mn
Bit rate                         : 10.4 Mbps
Nominal bit rate                 : 10.6 Mbps
Width                            : 1 920 pixels
Height                           : 1 080 pixels
Display aspect ratio             : 16:9
Frame rate                       : 23.976 fps
Resolution                       : 8 bits
Colorimetry                      : 4:2:0
Scan type                        : Progressive
Bits/(Pixel*Frame)               : 0.209
Stream size                      : 6.76 GiB (83%)
Writing library                  : x264 core 125 r2208 d9d2288
Encoding settings                : cabac=1 / ref=4 / deblock=1:-3:-3 / analyse=0x3:0x113 / me=umh / subme=10 / psy=1 / psy_rd=1.05:0.10 / mixed_ref=1 / me_range=32 / chroma_me=1 / trellis=2 / 8x8dct=1 / cqm=0 / deadzone=21,11 / fast_pskip=0 / chroma_qp_offset=-2 / threads=8 / lookahead_threads=1 / sliced_threads=0 / nr=0 / decimate=1 / interlaced=0 / bluray_compat=0 / constrained_intra=0 / bframes=5 / b_pyramid=2 / b_adapt=2 / b_bias=0 / direct=3 / weightb=1 / open_gop=0 / weightp=2 / keyint=250 / keyint_min=23 / scenecut=40 / intra_refresh=0 / rc=2pass / mbtree=0 / bitrate=10632 / ratetol=1.0 / qcomp=0.70 / qpmin=0 / qpmax=69 / qpstep=4 / cplxblur=20.0 / qblur=0.5 / ip_ratio=1.40 / pb_ratio=1.30 / aq=2:1.00
Audio #1
ID                               : 2
Format                           : AC-3
Format/Info                      : Audio Coding 3
Codec ID                         : A_AC3
Duration                         : 1h 33mn
Bit rate mode                    : Constant
Bit rate                         : 384 Kbps
Channel(s)                       : 6 channels
Channel positions                : Front: L C R, Surround: L R, LFE
Sampling rate                    : 48.0 KHz
Stream size                      : 257 MiB (3%)
Title                            : ДБ
Language                         : Russian
Audio #2
ID                               : 3
Format                           : DTS
Format/Info                      : Digital Theater Systems
Codec ID                         : A_DTS
Duration                         : 1h 33mn
Bit rate mode                    : Constant
Bit rate                         : 1 510 Kbps
Channel(s)                       : 6 channels
Channel positions                : Front: L C R, Surround: L R, LFE
Sampling rate                    : 48.0 KHz
Resolution                       : 24 bits
Stream size                      : 1 009 MiB (12%)
Text #1
ID                               : 4
Format                           : UTF-8
Codec ID                         : S_TEXT/UTF8
Codec ID/Info                    : UTF-8 Plain Text
Language                         : Russian
Text #2
ID                               : 5
Format                           : UTF-8
Codec ID                         : S_TEXT/UTF8
Codec ID/Info                    : UTF-8 Plain Text
Title                            : Full
Text #3
ID                               : 6
Format                           : UTF-8
Codec ID                         : S_TEXT/UTF8
Codec ID/Info                    : UTF-8 Plain Text
Title                            : Full SDH
Menu
00:00:00.000                     : en:
00:03:40.886                     : en:
00:08:21.083                     : en:
00:13:13.250                     : en:
00:16:07.508                     : en:
00:21:14.022                     : en:
00:26:29.713                     : en:
00:31:57.748                     : en:
00:36:37.069                     : en:
00:41:07.256                     : en:
00:46:22.571                     : en:
00:51:03.810                     : en:
00:54:51.621                     : en:
00:58:31.131                     : en:
01:04:22.608                     : en:
01:07:55.821                     : en:
01:13:54.847                     : en:
01:17:14.254                     : en:
01:21:19.040                     : en:
01:26:37.149                     : en:
Скриншоты:
       
     

_________________
Other forum [Profile] [PM]
Similar theme
Forum Topic Author Torrent Replies Last Post
./templates/default/images/folder_dl.gif Техническая и научно-популярная литература Министерство Обороны СССР | Танк Т-80. Техническое описание и инструкция по эксплуатации (1979) [PDF] UndegraundMen
1 | 0

0 | 802

0

2013-09-19 19:35
UndegraundMen Latest
./templates/default/images/folder_dl.gif Техническая и научно-популярная литература Министерство Обороны Российской Федерации - Журнал «Ориентир» [2012-2015, PDF, RUS] Omen
0 | 1

0 | 695

0

2015-08-15 21:00
Omen Latest
./templates/default/images/folder_dl.gif Фантастика, фэнтези, ужасы, мистика Светлана Кузнецова | Метро 2033: Уроборос (2018) [FB2] }{@R0N
1 | 0

0 | 435

0

2018-12-27 21:59
}{@R0N Latest
Display posts from previous:    
Reply to topic

The time now is: Today 01:58

All times are GMT + 3 Hours



You cannot post new topics in this forum
You cannot reply to topics in this forum
You cannot edit your posts in this forum
You cannot delete your posts in this forum
You cannot vote in polls in this forum
You cannot attach files in this forum
You cannot download files in this forum