Сегодня идет свободное скачивание без начисления Download

Волшебное серебро / Julenatt i Blafjell (2010) DVDRip [фэнтези, приключения, семейный]

Ответить на тему
 
Автор
Сообщение

Omen ®

Стаж: 6 лет 4 месяца

Сообщений: 184267

Торрент-статистика

Пост 13-Апр-2011 19:46

[Цитировать]

Волшебное серебро / Julenatt i Blafjell Страна: Норвегия
Студия: Film Fund FUZZ, Storm Rosenberg
Жанр: фэнтези, приключения, семейный
Год выпуска: 2009
Мировая премьера: 13 ноября 2009
Дата выхода DVD: 17 марта 2011, «Мистерия Звука»
Продолжительность: 01:22:57
Перевод: Профессиональный (дублированный)
Cубтитры: нет

Режиссер: Катарина Лаунинг, Роар Утхауг / Katarina Launing, Roar Uthaug

В ролях: Симен Баккен, Сигве Боэ, Николин Урсин Эрихсен, Лиллиан Лидерсен, Карре Хеллум, Финн Шо

Описание: Блюроуз — это принцесса царства гномов, расположенного далеко в норвежских горах. Небольшое сообщество гномов отвечает за переход между дневным светом и ночной тьмой. Этот промежуток называется волшебным часом и создается с помощью волшебного серебра, которым владеют только эти гномы. Но вот серебро украдено другими гномами и людьми, и мир погружается в вечную ночь. Принцесса Блюроуз отправляется в путь, чтобы вернуть серебро и спасти мир от вечной тьмы…



Источник/Качество: DVDRip
Видео кодек: XViD
Аудио кодек: AC3
Видео: 720x304 (2.37:1), 25 fps, XviD build 50 ~2183 kbps avg, 0.40 bit/pixel
Аудио: 48 kHz, AC3 Dolby Digital, 2/0 (L,R) ch, ~192 kbps

Media Info


Общее
Полное имя : W:\Торрент WD\Julenatt i Blafjell.2009.D.DVDRip.avi
Формат : AVI
Формат/Информация : Audio Video Interleave
Размер файла : 1,37 Гбайт
Продолжительность : 1 ч. 22 м.
Общий поток : 2385 Кбит/сек
Программа кодирования : VirtualDubMod 1.5.10.2 (build 2540/release)
Библиотека кодирования : VirtualDub build 32661/release
Видео
Идентификатор : 0
Формат : MPEG-4 Visual
Профиль формата : Advanced [email protected]
Параметр BVOP формата : 2
Параметр QPel формата : Нет
Параметр GMC формата : Без точки перехода
Параметр матрицы формата : Default (MPEG)
Идентификатор кодека : XVID
Идентификатор кодека/Подсказка : XviD
Продолжительность : 1 ч. 22 м.
Битрейт : 2184 Кбит/сек
Ширина : 720 пикс.
Высота : 304 пикс.
Соотношение сторон : 2,35:1
Частота кадров : 25,000 кадр/сек
Цветовое пространство : YUV
Подвыборка цветности : 4:2:0
Битовая глубина : 8 бит
Тип развёртки : Прогрессивная
Метод сжатия : С потерями
Бит/(Пиксели*Кадры) : 0.399
Размер потока : 1,26 Гбайт (92%)
Библиотека кодирования : XviD 1.2.1 (UTC 2008-12-04)
Аудио
Идентификатор : 1
Формат : AC-3
Формат/Информация : Audio Coding 3
Расширение режима : CM (complete main)
Идентификатор кодека : 2000
Продолжительность : 1 ч. 22 м.
Вид битрейта : Постоянный
Битрейт : 192 Кбит/сек
Канал(ы) : 2 канала(ов)
Расположение каналов : Front: L R
Частота : 48,0 КГц
Битовая глубина : 16 бит
Метод сжатия : С потерями
Размер потока : 113 Мбайт (8%)
Выравнивание : Соединение по промежуткам
Продолжительность промежутка : 40 мс. (1,00 видеокадр)
Время предзагрузки промежутка : 512 ms

Скриншоты


       


Последний раз редактировалось: Omen (2011-04-13 20:22), всего редактировалось 4 раз(а)
Вне форума [Профиль] [ЛС]
Показать сообщения:    
Ответить на тему

Текущее время: Сегодня 21:00

Часовой пояс: GMT + 3



Вы не можете начинать темы
Вы не можете отвечать на сообщения
Вы не можете редактировать свои сообщения
Вы не можете удалять свои сообщения
Вы не можете голосовать в опросах
Вы не можете прикреплять файлы к сообщениям
Вы не можете скачивать файлы