Today is a free download without charge Download

Николай Латанский полная подборка видео с сайта latansky.com (mp4) [бизнес, финансы, коучинг, HDRip, RUS] (Видеоурок)

Reply to topic
 
Author
Message

Omen ®

Longevity: 7 years 10 months

Posts: 181087

Торрент-статистика

Post 15-Dec-2012 00:58

[Quote]

Николай Латанский полная подборка видео с сайта latansky.com (mp4)
Страна: Россия, Украина
Тематика: бизнес, финансы, коучинг
Тип раздаваемого материала: Видеоурок
Продолжительность: 90 видеофайлов около 10 часов
Язык: Русский
Перевод: Не требуется
Офсайт Николая Латанского
Практически все ролики формата 1280х720.
Буквально 3-4 штуки формата 480х360
Описание: Николай Латанский — Первый Русскоязычный Мотивационный Спикер, Телеведущий программы «Секреты Успеха» на канале 1+1, Тренер и Коуч Успеха №1 на Русскоязычном Пространстве.
Николай Латанский, 38 лет. Персональный ученик легендарного Джека Кэнфилда, которого Вы видели в нашумевшем фильме «Секрет» и которого называют Наполеоном Хиллом двадцать первого века.
Коуч и тренер Международного Проекта «Удивительная Игра Жизни™».
Ведущий годовой программы подготовки тренеров и коучей нового поколения Platinum Group.
Преподаватель курса «Успех Оптимальными Усилиями™» Киевской Бизнес Школы.
Создал, развил и успешно продал собственную компанию Inteldome.

Доп. информация

Образование:
Canfield Trainings Group, США;
Sedona Training Associates, США;
Peak Potentials Training, США;
Centerpointe Research Institute, США;
Gove-Siebold Group, Великобритания;
Dream University, США;
Erickson College International, Канада;
The Chartered Institute of Marketing, Великобритания;
Toastmasters International, США;
Национальный Технический Университет Украины «КПИ», Украина.
В совершенстве владеет английским и немецким языками.
Плеяда мировых звезд успеха, у которых Николай обучался лично, впечатляет:
Bill Harris («Секрет»), Hale Dwoskin («Секрет»), T. Harv Eker (Peak Potentials), Jack Canfield («Секрет»), Jim Bunch («Передай Дальше»), Paul Sheele (Learning Strategies), Marci Shimoff («Секрет»), Marcia Martin (Power Speaking), Marcia Wieder (Dream University), Marilyn Atkinson (Эриксоновский Университет) и многих других.

Информация о Видео и Аудио

Format : MPEG-4
Format profile : Base Media / Version 2
Codec ID : mp42
File size : 144 MiB
Duration : 9mn 20s
Overall bit rate : 2 151 Kbps
Encoded date : UTC 2010-08-05 01:46:22
Tagged date : UTC 2010-08-05 01:46:22
gsst : 0
gstd : 560280
gssd : B4A7DDA25MH1316523993128419
gshh : v5.cache2.c.youtube.com
Video #1
ID : 1
Format : AVC
Format/Info : Advanced Video Codec
Format profile : [email protected]
Format settings, CABAC : No
Format settings, ReFrames : 1 frame
Codec ID : avc1
Codec ID/Info : Advanced Video Coding
Duration : 9mn 20s
Bit rate mode : Variable
Bit rate : 2 019 Kbps
Maximum bit rate : 6 091 Kbps
Width : 1 280 pixels
Height : 720 pixels
Display aspect ratio : 16:9
Frame rate mode : Constant
Frame rate : 25.000 fps
Resolution : 24 bits
Colorimetry : 4:2:0
Scan type : Progressive
Bits/(Pixel*Frame) : 0.088
Stream size : 135 MiB (94%)
Encoded date : UTC 1970-01-01 00:00:00
Tagged date : UTC 2010-08-05 01:47:39
Audio #2
ID : 2
Format : AAC
Format/Info : Advanced Audio Codec
Format version : Version 4
Format profile : LC
Format settings, SBR : No
Codec ID : 40
Duration : 9mn 20s
Bit rate mode : Variable
Bit rate : 128 Kbps
Maximum bit rate : 227 Kbps
Channel(s) : 2 channels
Channel positions : L R
Sampling rate : 44.1 KHz
Resolution : 16 bits
Stream size : 8.55 MiB (6%)
Title : (C) 2007 Google Inc. v08.13.2007.
Encoded date : UTC 2010-08-05 01:46:45
Tagged date : UTC 2010-08-05 01:47:39

Список файлов

Телепрограмма Николая Латанского «ТыМожешь_™».mp4
«Успех - это набор правильных привычек». Часть 2.mp4
«Успех - это набор правильных привычек». Часть 1.mp4
До встречи в Тель-Авиве_ _).mp4
«Конкуренты_ Что Делать, Когда Вас Пытаются Атаковать».mp4
Кто такой Николай Латанский (видео).mp4
2010 год — Год Благодарности_.mp4
Латанский «попался» в Израиле_.mp4
Латанский на Средиземномморе в Израиле.mp4
«УспехбезУсилий™».mp4
Закадром «СекретыУспехасНиколаемЛатанским».mp4
НиколайЛатанскийсТаймсСквервНью-Йорке.mp4
Личнаяэффективность. ЛатанскийдляодесскогоТВ.mp4
ШколаКоучингаНиколаяЛатанского.mp4
Каксоздатьуспешныйбизнес. Часть 2.mp4
БезНаставникаНельзя_.mp4
Каксоздатьуспешныйбизнес. Часть 1.mp4
Какповыситьсамооценку.mp4
ГлавныйЗаконУспеха.mp4
ЛатанскийвСан-Франциско.mp4
ЛатанскийраскрываетСекретУспеха.mp4
Латанскийвстудии «ГолосАмерики» Вашингтон.mp4
Тренингинеработают_.mp4
УВасосталсяПоследнийШанс_.mp4
Успех — этокомандныйспорт_.mp4
РождениеЛатанскоговЛондоне_.mp4
КакЛатанскийвтюрьмупопал.mp4
СекретУспехатренинговЛатанского.mp4
ЛатанскийвГолливуде.mp4
ЛатанскийиПольза_ Польза_ Польза_.mp4
Коучинг. Какэтоработает_.mp4
ПочемуЛатанскийТренериКоучУспеха №1.mp4
Здоровье — этоВыбор_.mp4
Латанскийнатайскоммассаже.mp4
МировыегастролиЛатанскогос «ПрорывомкУспеху™».mp4
ВчемфеноменЭнтониРоббинса_.mp4
КакЛатанскийсбомжамиспал.mp4
Осторожно — НЛП_.mp4
Латанскийопаранормальном.mp4
КакЛатанскийобманываетлюдей.mp4
Каксделать 2011 лучшимгодом.mp4
Каксоздатьбогатство_.mp4
Вампообещалимиллион_.mp4
Каквыучитьанглийскийязык_.mp4
День РождениявНью-Йорке.mp4
НовыйГодвПустыне.mp4
Какнайтисвоегоучителя.mp4
Манипуляторыумираютрано_.mp4
КакработаетСедонскийМетод (СедонаМетод)_.mp4
Какзаработатьмиллион_.mp4
СекретуспехавСетевомМаркетингеилиМЛМ (MLM).mp4
Зарабатывайте, помогаядругимдостигатьуспеха_.mp4
ПочемуДеньгипортятлюдей.mp4
КакЛатанскийзвезднойболезньюзаболел.mp4
НиколайЛатанский — ТренериКоучУспеха №1.mp4
КэнфилдиЛатанскийобучаютуспеху.mp4
Какокружитьсебяуспешнымилюдьми.mp4
Каксоздатьуспешныйбизнесвинтернете.mp4
Каквыйтииззоныкомфорта_.mp4
Какбыстровосстановитьсилы.mp4
КакправильновыбратьТренера_.mp4
БОМБАнарынкеКоучинга_.mp4
ВгостяхуКоучаУспеха №1 вМире — Джима Банча (Jim Bunch).mp4
Какправильноставитьцели_.mp4
Тренеруспехаругаетсяматом.mp4
Залогуспехаввизитнойкарточке.mp4
Зачемрассказыватьосвоихцелях_.mp4
«СекретыВселенной» сНиколаемЛатанским.mp4
Какобманываютлюдей.mp4
ЗачемнужныТренингиЛичностногоРоста_.mp4
Миллионза 7 лет_.mp4
Гарантированныйспособстатьнеудачником.mp4
Обучение + Личностныйрост = Успехвжизниибизнесе_.mp4
Ядура. Чтоделать_.mp4
Бизнес — этоспортдляумных_.mp4
ЗаконПритяжениявдействии.mp4
Какборотьсяскритикой_.mp4
ГраницыРазума.mp4
Кчертувсе_ Берисьиделай_.mp4
Какстатьлучшимвсвоемделе_.mp4
Легкийспособстатьмиллионером.mp4
Зачемнуженнаставник_.mp4
Жизньрусскихэмигрантов.mp4
Вератворитчудеса.mp4
БезумиенатренингахЛатанского.mp4
Какизменитьсвоюжизньза 90 дней_.mp4
ЗаконыУспехавБизнесеТренераиКоуча.mp4
Mykola Latansky speaks at the Global Speakers Summit in Holl.mp4
Хочешьстатьлидером_ Будьклоуном_.mp4
ГлавныйСекретСпикеров-Миллионеров.mp4
7 315 996 Кбайтв 90 файлах/файле
Качество: HDRip
Формат: MP4
Видео: H.264
Аудио: AVC

Скриншоты




Все видео я скачал с официального сайта Латанского latansky.com
Раздача от меня с 11-00 до 23-00 по Москве
Other forum [Profile] [PM]
Display posts from previous:    
Reply to topic

The time now is: Today 02:22

All times are GMT + 3 Hours



You cannot post new topics in this forum
You cannot reply to topics in this forum
You cannot edit your posts in this forum
You cannot delete your posts in this forum
You cannot vote in polls in this forum
You cannot attach files in this forum
You cannot download files in this forum