Today is a free download without charge Download

Волшебное серебро / Julenatt i Blafjell (Катарина Лаунинг / Katarina Launing, Роар Утхауг / Roar Uthaug) [2009], [Норвегия], [фэнтези, приключения, семейный], [DVD5 R5] [PAL 16:9] «Мистерия Звука»

Reply to topic
 
Author
Message

Omen ®

Longevity: 7 years

Posts: 181090

Торрент-статистика

Post 13-Apr-2011 19:00

[Quote]

Волшебное серебро / Julenatt i Blafjell Страна: Норвегия
Студия: Film Fund FUZZ, Storm Rosenberg
Жанр: фэнтези, приключения, семейный
Год выпуска: 2009
Мировая премьера: 13 ноября 2009
Дата выхода DVD: 17 марта 2011, «Мистерия Звука»
Продолжительность: 01:22:57
Перевод: Профессиональный (дублированный) [Лицензия]
Cубтитры: нет

Режиссер: Катарина Лаунинг, Роар Утхауг / Katarina Launing, Roar Uthaug

В ролях: Симен Баккен, Сигве Боэ, Николин Урсин Эрихсен, Лиллиан Лидерсен, Карре Хеллум, Финн Шо

Описание: Блюроуз — это принцесса царства гномов, расположенного далеко в норвежских горах. Небольшое сообщество гномов отвечает за переход между дневным светом и ночной тьмой. Этот промежуток называется волшебным часом и создается с помощью волшебного серебра, которым владеют только эти гномы. Но вот серебро украдено другими гномами и людьми, и мир погружается в вечную ночь. Принцесса Блюроуз отправляется в путь, чтобы вернуть серебро и спасти мир от вечной тьмы…

Бонусы: нет



Качество: DVD5
Формат: DVD-Video
Видео кодек: MPEG2
Аудио кодек: AC3
Видео: PAL 16:9 (720x576(0.622)) MPEG Video,25,000 кадр/сек, 6448 Кбит/сек
Аудио: Russian (Dolby AC3, 2 ch) 192 Кбит/сек, 48,0 КГц

DVDInfo

Title: F
Size: 4.02 Gb ( 4 220 186 KBytes ) - DVD-5
Enabled regions: 1, 2, 3, 4, 5, 6, 7, 8
VTS_01 :
Play Length: 00:00:25+01:22:57
Video: PAL 16:9 (720x576) VBR, Auto Letterboxed
Audio:
Russian (Dolby AC3, 2 ch)
Menu Video:
PAL 4:3 (720x576) VBR
Auto Pan&Scan, Auto Letterboxed
Menu Russian Language Unit :
Root Menu
Chapter (PTT) Menu

MediaInfo

Общее
Полное имя : F:\Новинки 2011\Julenatt i Blafjell.2009.DVD5\VIDEO_TS\VTS_01_1.VOB
Формат : MPEG-PS
Размер файла : 1024 Мбайт
Продолжительность : 21 м.
Общий поток : 6775 Кбит/сек
Видео
Идентификатор : 224 (0xE0)
Формат : MPEG Video
Версия формата : Version 2
Профиль формата : [email protected]
Параметр BVOP формата : Да
Параметр матрицы формата : По умолчанию
Продолжительность : 21 м.
Вид битрейта : Переменный
Битрейт : 6448 Кбит/сек
Ширина : 720 пикс.
Высота : 576 пикс.
Соотношение сторон : 16:9
Частота кадров : 25,000 кадр/сек
Стандарт вещания : PAL
Цветовое пространство : YUV
Подвыборка цветности : 4:2:0
Битовая глубина : 8 бит
Метод сжатия : С потерями
Бит/(Пиксели*Кадры) : 0.622
Размер потока : 975 Мбайт (95%)
Аудио
Идентификатор : 189 (0xBD)-128 (0x80)
Формат : AC-3
Формат/Информация : Audio Coding 3
Расширение режима : CM (complete main)
Режим смешивания : DVD-Video
Продолжительность : 21 м.
Вид битрейта : Постоянный
Битрейт : 192 Кбит/сек
Канал(ы) : 2 канала(ов)
Расположение каналов : Front: L R
Частота : 48,0 КГц
Битовая глубина : 16 бит
Метод сжатия : С потерями
Задержка видео : -50 мс.
Размер потока : 29,0 Мбайт (3%)

Скриншоты меню

  

Скриншоты фильма

        


Last edited by Omen on 2011-04-13 19:47; edited 2 times in total
Other forum [Profile] [PM]

Dracula

Longevity: 6 years

Posts: 10640

Торрент-статистика

Post 13-Apr-2011 19:07 (after 6 minutes)

Топик был перенесен из форума Фильмы 2006-2010 в форум Зарубежное кино (DVD)

Nugeiro
 
Display posts from previous:    
Reply to topic

The time now is: Today 09:05

All times are GMT + 3 Hours



You cannot post new topics in this forum
You cannot reply to topics in this forum
You cannot edit your posts in this forum
You cannot delete your posts in this forum
You cannot vote in polls in this forum
You cannot attach files in this forum
You cannot download files in this forum