Today is a free download without charge Download

Кирилл SkorpLive - Как заработать на продаже статей (Копирайтинг) [RUS, DVDRip]

Reply to topic
 
Author
Message

Omen ®

Longevity: 7 years 10 months

Posts: 181087

Торрент-статистика

Post 15-Dec-2012 00:56

[Quote]

Кирилл SkorpLive - Как заработать на продаже статей
Автор: Кирилл SkorpLive
Производитель: http://tutext.ru
Тип раздаваемого материала: Видеоурок
Год выпуска: 2012
Продолжительность: 00:21:13
Тематика: Копирайтинг
Качество: DVD Custom
Видео: 1244х695
Язык: Русский
Перевод: Отсутствует
Описание: Из данного видеоруководства вы узнаете как писать статьи, как выбирать тему для статей, от куда брать информацию для ваших текстов и как в последствии их продавать. Это подробная видеоинструкция где все шаг за шагом наглядно показано.

Скриншоты

MediaInfo

General
Format : MPEG-4
Format profile : Base Media / Version 2
Codec ID : mp42
File size : 40.7 MiB
Duration : 21mn 13s
Overall bit rate : 268 Kbps
Encoded date : UTC 2012-03-02 13:19:56
Tagged date : UTC 2012-03-02 13:19:56
Video
ID : 1
Format : AVC
Format/Info : Advanced Video Codec
Format profile : [email protected]
Format settings, CABAC : Yes
Format settings, ReFrames : 4 frames
Codec ID : avc1
Codec ID/Info : Advanced Video Coding
Duration : 21mn 13s
Bit rate mode : Variable
Bit rate : 205 Kbps
Width : 1 244 pixels
Height : 696 pixels
Display aspect ratio : 16:9
Frame rate mode : Constant
Frame rate : 15.000 fps
Color space : YUV
Chroma subsampling : 4:2:0
Bit depth : 8 bits
Scan type : Progressive
Bits/(Pixel*Frame) : 0.016
Stream size : 31.1 MiB (76%)
Language : English
Encoded date : UTC 2012-03-02 13:19:56
Tagged date : UTC 2012-03-02 13:19:56
Material_Duration : 1273800
Material_StreamSize : 32619530
Material_FrameCount : 19107
Color primaries : BT.709-5, BT.1361, IEC 61966-2-4, SMPTE RP177
Transfer characteristics : BT.709-5, BT.1361
Matrix coefficients : BT.709-5, BT.1361, IEC 61966-2-4 709, SMPTE RP177
Audio
ID : 2
Format : AAC
Format/Info : Advanced Audio Codec
Format profile : LC
Codec ID : 40
Duration : 21mn 13s
Bit rate mode : Constant
Bit rate : 61.2 Kbps
Channel(s) : 2 channels
Channel positions : Front: L R
Sampling rate : 44.1 KHz
Compression mode : Lossy
Stream size : 9.29 MiB (23%)
Language : English
Encoded date : UTC 2012-03-02 13:19:56
Tagged date : UTC 2012-03-02 13:19:56
Material_Duration : 1273824
Material_StreamSize : 9745543
Other forum [Profile] [PM]
Similar theme
Forum Topic Author Torrent Replies Last Post
./templates/default/images/folder_dl.gif Обучающее видео История жизни на Земле. Кирилл Юрьевич Еськов [2016, биология, палеонтология, CAMRip, RUS] (Видеоурок) Omen
1 | 0

0 | 1540

8

2016-05-20 03:00
Omen Latest
./templates/default/images/folder_dl.gif Приключения, детектив, боевик, триллер Кристи Агата - Убийство в доме викария [Кирилл Гребенщиков, 2004, 128 kbps, MP3] Omen
1 | 0

0 | 1747

0

2016-11-19 01:00
Omen Latest
Display posts from previous:    
Reply to topic

The time now is: Today 15:44

All times are GMT + 3 Hours



You cannot post new topics in this forum
You cannot reply to topics in this forum
You cannot edit your posts in this forum
You cannot delete your posts in this forum
You cannot vote in polls in this forum
You cannot attach files in this forum
You cannot download files in this forum